7. Owarimonogatari - End Story/[NoobSubs] Owarimonogatari 12 (1080p Blu-ray 8bit AAC).mp4


File Size562.0 MB (589,327,786 bytes)
DownloadGo4Up | Jheberg | MultiUp
  • ClickNupload
  • Fichier
  • Filerio
  • Free
  • Fufox
  • HugeFiles
  • Mightyupload
  • ToutBox
  • Turbobit
  • UpToBox
  • Uplea
  • UploadBaz
  • Uploadable
  • Uploaded
  • Uppit
  • Userscloud
| OpenLoad | UsersCloud
Sendspace: Part1, Part2
SolidFiles: Part1, Part2
HashesCRC32: BCCD25F6, MD5: 94ED9F27D0DC0B018892A8EECD8E899D, SHA1: 9BEFD90B6596C3BB6D03E36D6824C2054258F1C8, SHA256: 8E221822C4AC8DACB7212C83D06F2EFCC2057CE1FC822834A86EFFF76D6FA33F, ED2K: DDDA1B74F018C371321E84CED682E2FF
Screenshots
screenshotscreenshotscreenshotscreenshotscreenshot
Additional Info
General
Complete name                            : [NoobSubs] Owarimonogatari 12 (1080p Blu-ray 8bit AAC).mp4
Format                                   : MPEG-4
Format profile                           : Base Media
Codec ID                                 : isom (isom/avc1)
File size                                : 562 MiB
Duration                                 : 24mn 10s
Overall bit rate mode                    : Variable
Overall bit rate                         : 3 251 Kbps
Movie name                               : [NoobSubs] Owarimonogatari 12 (1080p Blu-ray 8bit AAC)
Album                                    : Owarimonogatari - End Story
Track name/Position                      : 12
Track name/Total                         : 13
Performer                                : Subs: [Commie] - [Coalgirls]
Encoded date                             : UTC 2016-07-31 02:58:28
Tagged date                              : UTC 2016-07-31 03:37:04
replaygain_track_gain                    : +0.92 dB
replaygain_track_minmax                  : 90,183
replaygain_track_peak                    : 0.720000
replaygain_undo                          : -2,-2

Video
ID                                       : 1
Format                                   : AVC
Format/Info                              : Advanced Video Codec
Format profile                           : High@L4
Format settings, CABAC                   : Yes
Format settings, ReFrames                : 4 frames
Codec ID                                 : avc1
Codec ID/Info                            : Advanced Video Coding
Duration                                 : 24mn 9s
Bit rate                                 : 2 950 Kbps
Maximum bit rate                         : 14.7 Mbps
Width                                    : 1 920 pixels
Height                                   : 1 080 pixels
Display aspect ratio                     : 16:9
Frame rate mode                          : Constant
Frame rate                               : 23.976 (24000/1001) fps
Color space                              : YUV
Chroma subsampling                       : 4:2:0
Bit depth                                : 8 bits
Scan type                                : Progressive
Bits/(Pixel*Frame)                       : 0.059
Stream size                              : 510 MiB (91%)
Title                                    : h264@GPAC0.6.2-DEV-rev142-g9a9a995-master
Writing library                          : x264 core 148 r2665 a01e339
Encoding settings                        : cabac=1 / ref=4 / deblock=1:0:0 / analyse=0x3:0x133 / me=umh / subme=10 / psy=1 / psy_rd=1.00:0.00 / mixed_ref=1 / me_range=24 / chroma_me=1 / trellis=2 / 8x8dct=1 / cqm=0 / deadzone=21,11 / fast_pskip=1 / chroma_qp_offset=-2 / threads=12 / lookahead_threads=2 / sliced_threads=0 / nr=0 / decimate=1 / interlaced=0 / bluray_compat=0 / constrained_intra=0 / bframes=7 / b_pyramid=2 / b_adapt=2 / b_bias=0 / direct=3 / weightb=1 / open_gop=0 / weightp=2 / keyint=250 / keyint_min=23 / scenecut=40 / intra_refresh=0 / rc_lookahead=60 / rc=crf / mbtree=1 / crf=17.3 / qcomp=0.60 / qpmin=0 / qpmax=69 / qpstep=4 / ip_ratio=1.40 / aq=1:1.30
Encoded date                             : UTC 2016-07-31 02:58:28
Tagged date                              : UTC 2016-07-31 02:58:40

Audio
ID                                       : 2
Format                                   : AAC
Format/Info                              : Advanced Audio Codec
Format profile                           : LC
Codec ID                                 : 40
Duration                                 : 24mn 10s
Bit rate mode                            : Variable
Bit rate                                 : 298 Kbps
Maximum bit rate                         : 351 Kbps
Channel(s)                               : 2 channels
Channel positions                        : Front: L R
Sampling rate                            : 48.0 KHz
Frame rate                               : 46.875 fps (1024 spf)
Compression mode                         : Lossy
Stream size                              : 51.4 MiB (9%)
Encoded date                             : UTC 2016-07-31 02:24:32
Tagged date                              : UTC 2016-07-31 02:58:40

Other Files in this Torrent
7. Owarimonogatari - End Story/[NoobSubs] Owarimonogatari 12 (1080p Blu-ray 8bit AAC).mp4
beta
Anime DDL+NZB mirror
Current Time: 13/06/2024 08:18



About/FAQs

Discord