File Size92.25 MB (96,731,068 bytes)
DownloadAnonFiles | ClickNUpload | DropAPK | Free | MultiUp
  • BdUpload
  • DownAce
  • Fichier
  • FileCloud
  • Filerio
  • FilesCdn
  • IndiShare
  • Kbagi
  • Turbobit
  • UpToBox
  • Uppit
| Sendspace | SolidFiles | ZippyShare
HashesCRC32: CAB76F9C, MD5: 2F8BB8EDA1ECB257937FBB0AFE049783, SHA1: A7382641ADB3388143D71C8176C02414367E850C, SHA256: 9CF63BFD24379968F5C5B7680F9799207F2E94AEF9EE3F6E476B561932F4BEE6, ED2K: 2922E09ED16FC2775772F8DB02406E96
Screenshots
screenshotscreenshotscreenshotscreenshotscreenshot
SubtitlesAll Attachments | English [eng, ASS], Arabic [ara, ASS], French [fre, ASS], German [ger, ASS], Italian [ita, ASS], Portuguese [por, ASS], Russian [rus, ASS], Spanish1 [spa, ASS], Spanish2 [spa, ASS]
Additional Info
General
Unique ID                                : 194046650853987781762592480941642653499 (0x91FC068A5D511AA61E5C3F7EAF949F3B)
Complete name                            : [zza] Manaria Friends - 04 [1080p.x265].mkv
Format                                   : Matroska
Format version                           : Version 4
File size                                : 92.2 MiB
Duration                                 : 14 min 47 s
Overall bit rate                         : 871 kb/s
Movie name                               : [zza] Manaria Friends - 04 - Test Time
Encoded date                             : UTC 2020-08-26 12:00:34
Writing application                      : mkvmerge v38.0.0 ('The Silent Type') 64-bit
Writing library                          : libebml v1.3.9 + libmatroska v1.5.2
Cover                                    : Yes
Attachments                              : cover.jpg

Video
ID                                       : 1
Format                                   : HEVC
Format/Info                              : High Efficiency Video Coding
Format profile                           : Main 10@L5@Main
Codec ID                                 : V_MPEGH/ISO/HEVC
Duration                                 : 14 min 47 s
Bit rate                                 : 676 kb/s
Width                                    : 1 920 pixels
Height                                   : 1 080 pixels
Display aspect ratio                     : 16:9
Frame rate mode                          : Constant
Frame rate                               : 23.976 (24000/1001) FPS
Color space                              : YUV
Chroma subsampling                       : 4:2:0
Bit depth                                : 10 bits
Bits/(Pixel*Frame)                       : 0.014
Stream size                              : 71.5 MiB (78%)
Language                                 : zza
Default                                  : Yes
Forced                                   : No
Color range                              : Limited

Audio
ID                                       : 2
Format                                   : E-AC-3
Format/Info                              : Enhanced AC-3
Commercial name                          : Dolby Digital Plus
Codec ID                                 : A_EAC3
Duration                                 : 14 min 47 s
Bit rate mode                            : Constant
Bit rate                                 : 192 kb/s
Channel(s)                               : 2 channels
Channel layout                           : L R
Sampling rate                            : 44.1 kHz
Frame rate                               : 28.711 FPS (1536 SPF)
Compression mode                         : Lossy
Stream size                              : 20.3 MiB (22%)
Language                                 : Japanese
Service kind                             : Complete Main
Default                                  : Yes
Forced                                   : No

Text #1
ID                                       : 3
Format                                   : ASS
Codec ID                                 : S_TEXT/ASS
Codec ID/Info                            : Advanced Sub Station Alpha
Duration                                 : 12 min 53 s
Bit rate                                 : 38 b/s
Count of elements                        : 60
Compression mode                         : Lossless
Stream size                              : 3.63 KiB (0%)
Title                                    : English
Language                                 : English
Default                                  : Yes
Forced                                   : No

Text #2
ID                                       : 4
Format                                   : ASS
Codec ID                                 : S_TEXT/ASS
Codec ID/Info                            : Advanced Sub Station Alpha
Duration                                 : 12 min 53 s
Bit rate                                 : 49 b/s
Count of elements                        : 58
Compression mode                         : Lossless
Stream size                              : 4.65 KiB (0%)
Title                                    : Arabic
Language                                 : Arabic
Default                                  : No
Forced                                   : No

Text #3
ID                                       : 5
Format                                   : ASS
Codec ID                                 : S_TEXT/ASS
Codec ID/Info                            : Advanced Sub Station Alpha
Duration                                 : 12 min 53 s
Bit rate                                 : 37 b/s
Count of elements                        : 56
Compression mode                         : Lossless
Stream size                              : 3.54 KiB (0%)
Title                                    : French
Language                                 : French
Default                                  : No
Forced                                   : No

Text #4
ID                                       : 6
Format                                   : ASS
Codec ID                                 : S_TEXT/ASS
Codec ID/Info                            : Advanced Sub Station Alpha
Duration                                 : 12 min 53 s
Bit rate                                 : 37 b/s
Count of elements                        : 58
Compression mode                         : Lossless
Stream size                              : 3.51 KiB (0%)
Title                                    : German
Language                                 : German
Default                                  : No
Forced                                   : No

Text #5
ID                                       : 7
Format                                   : ASS
Codec ID                                 : S_TEXT/ASS
Codec ID/Info                            : Advanced Sub Station Alpha
Duration                                 : 12 min 53 s
Bit rate                                 : 38 b/s
Count of elements                        : 60
Compression mode                         : Lossless
Stream size                              : 3.65 KiB (0%)
Title                                    : Italian
Language                                 : Italian
Default                                  : No
Forced                                   : No

Text #6
ID                                       : 8
Format                                   : ASS
Codec ID                                 : S_TEXT/ASS
Codec ID/Info                            : Advanced Sub Station Alpha
Duration                                 : 12 min 53 s
Bit rate                                 : 38 b/s
Count of elements                        : 63
Compression mode                         : Lossless
Stream size                              : 3.66 KiB (0%)
Title                                    : Portuguese
Language                                 : Portuguese
Default                                  : No
Forced                                   : No

Text #7
ID                                       : 9
Format                                   : ASS
Codec ID                                 : S_TEXT/ASS
Codec ID/Info                            : Advanced Sub Station Alpha
Duration                                 : 13 min 8 s
Bit rate                                 : 57 b/s
Count of elements                        : 63
Compression mode                         : Lossless
Stream size                              : 5.54 KiB (0%)
Title                                    : Russian
Language                                 : Russian
Default                                  : No
Forced                                   : No

Text #8
ID                                       : 10
Format                                   : ASS
Codec ID                                 : S_TEXT/ASS
Codec ID/Info                            : Advanced Sub Station Alpha
Duration                                 : 12 min 53 s
Bit rate                                 : 34 b/s
Count of elements                        : 56
Compression mode                         : Lossless
Stream size                              : 3.24 KiB (0%)
Title                                    : Spanish1
Language                                 : Spanish
Default                                  : No
Forced                                   : No

Text #9
ID                                       : 11
Format                                   : ASS
Codec ID                                 : S_TEXT/ASS
Codec ID/Info                            : Advanced Sub Station Alpha
Duration                                 : 12 min 53 s
Bit rate                                 : 34 b/s
Count of elements                        : 56
Compression mode                         : Lossless
Stream size                              : 3.23 KiB (0%)
Title                                    : Spanish2
Language                                 : Spanish
Default                                  : No
Forced                                   : No

Other Files in this Torrent
[zza] Manaria Friends - 04 [1080p.x265].mkv
beta
Anime DDL+NZB mirror
Current Time: 29/11/2020 14:45



About/FAQs