File Size81.82 MB (85,792,636 bytes)
DownloadAnonFiles | ClickNUpload | DropAPK | Free | MultiUp
  • BdUpload
  • DownAce
  • Fichier
  • FileCloud
  • Filerio
  • FilesCdn
  • IndiShare
  • Kbagi
  • Turbobit
  • UpToBox
  • Uppit
| Sendspace | SolidFiles | ZippyShare
HashesCRC32: 77C0DE32, MD5: FF001D1199BBF52E1AF08A049158308B, SHA1: 6A63D5C0AA7221CBB17855A0B869685379151A0D, SHA256: AE3578E4B459DF1AD45EA5CB8659620A3A945A461F97EB3B782FE30CC885832D, ED2K: 7EBD5CE85215AC6BDBC4B430FE68BC16
Screenshots
screenshotscreenshotscreenshotscreenshotscreenshot
SubtitlesAll Attachments | English [eng, ASS], Arabic [ara, ASS], French [fre, ASS], German [ger, ASS], Italian [ita, ASS], Portuguese [por, ASS], Russian [rus, ASS], Spanish1 [spa, ASS], Spanish2 [spa, ASS]
Additional Info
General
Unique ID                                : 316274061750283244363480604595414672401 (0xEDF02B2A677164ECC524DB11C168A411)
Complete name                            : [zza] Manaria Friends - 08 [1080p.x265].mkv
Format                                   : Matroska
Format version                           : Version 4
File size                                : 81.8 MiB
Duration                                 : 14 min 44 s
Overall bit rate                         : 776 kb/s
Movie name                               : [zza] Manaria Friends - 08 - Backstage Confidential
Encoded date                             : UTC 2020-08-26 12:00:52
Writing application                      : mkvmerge v38.0.0 ('The Silent Type') 64-bit
Writing library                          : libebml v1.3.9 + libmatroska v1.5.2
Cover                                    : Yes
Attachments                              : cover.jpg

Video
ID                                       : 1
Format                                   : HEVC
Format/Info                              : High Efficiency Video Coding
Format profile                           : Main 10@L5@Main
Codec ID                                 : V_MPEGH/ISO/HEVC
Duration                                 : 14 min 44 s
Bit rate                                 : 580 kb/s
Width                                    : 1 920 pixels
Height                                   : 1 080 pixels
Display aspect ratio                     : 16:9
Frame rate mode                          : Constant
Frame rate                               : 23.976 (24000/1001) FPS
Color space                              : YUV
Chroma subsampling                       : 4:2:0
Bit depth                                : 10 bits
Bits/(Pixel*Frame)                       : 0.012
Stream size                              : 61.1 MiB (75%)
Language                                 : zza
Default                                  : Yes
Forced                                   : No
Color range                              : Limited

Audio
ID                                       : 2
Format                                   : E-AC-3
Format/Info                              : Enhanced AC-3
Commercial name                          : Dolby Digital Plus
Codec ID                                 : A_EAC3
Duration                                 : 14 min 44 s
Bit rate mode                            : Constant
Bit rate                                 : 192 kb/s
Channel(s)                               : 2 channels
Channel layout                           : L R
Sampling rate                            : 44.1 kHz
Frame rate                               : 28.711 FPS (1536 SPF)
Compression mode                         : Lossy
Stream size                              : 20.3 MiB (25%)
Language                                 : Japanese
Service kind                             : Complete Main
Default                                  : Yes
Forced                                   : No

Text #1
ID                                       : 3
Format                                   : ASS
Codec ID                                 : S_TEXT/ASS
Codec ID/Info                            : Advanced Sub Station Alpha
Duration                                 : 12 min 58 s
Bit rate                                 : 59 b/s
Count of elements                        : 101
Compression mode                         : Lossless
Stream size                              : 5.63 KiB (0%)
Title                                    : English
Language                                 : English
Default                                  : Yes
Forced                                   : No

Text #2
ID                                       : 4
Format                                   : ASS
Codec ID                                 : S_TEXT/ASS
Codec ID/Info                            : Advanced Sub Station Alpha
Duration                                 : 12 min 58 s
Bit rate                                 : 70 b/s
Count of elements                        : 100
Compression mode                         : Lossless
Stream size                              : 6.67 KiB (0%)
Title                                    : Arabic
Language                                 : Arabic
Default                                  : No
Forced                                   : No

Text #3
ID                                       : 5
Format                                   : ASS
Codec ID                                 : S_TEXT/ASS
Codec ID/Info                            : Advanced Sub Station Alpha
Duration                                 : 12 min 50 s
Bit rate                                 : 60 b/s
Count of elements                        : 100
Compression mode                         : Lossless
Stream size                              : 5.73 KiB (0%)
Title                                    : French
Language                                 : French
Default                                  : No
Forced                                   : No

Text #4
ID                                       : 6
Format                                   : ASS
Codec ID                                 : S_TEXT/ASS
Codec ID/Info                            : Advanced Sub Station Alpha
Duration                                 : 12 min 58 s
Bit rate                                 : 58 b/s
Count of elements                        : 101
Compression mode                         : Lossless
Stream size                              : 5.53 KiB (0%)
Title                                    : German
Language                                 : German
Default                                  : No
Forced                                   : No

Text #5
ID                                       : 7
Format                                   : ASS
Codec ID                                 : S_TEXT/ASS
Codec ID/Info                            : Advanced Sub Station Alpha
Duration                                 : 12 min 58 s
Bit rate                                 : 60 b/s
Count of elements                        : 103
Compression mode                         : Lossless
Stream size                              : 5.77 KiB (0%)
Title                                    : Italian
Language                                 : Italian
Default                                  : No
Forced                                   : No

Text #6
ID                                       : 8
Format                                   : ASS
Codec ID                                 : S_TEXT/ASS
Codec ID/Info                            : Advanced Sub Station Alpha
Duration                                 : 12 min 58 s
Bit rate                                 : 58 b/s
Count of elements                        : 102
Compression mode                         : Lossless
Stream size                              : 5.55 KiB (0%)
Title                                    : Portuguese
Language                                 : Portuguese
Default                                  : No
Forced                                   : No

Text #7
ID                                       : 9
Format                                   : ASS
Codec ID                                 : S_TEXT/ASS
Codec ID/Info                            : Advanced Sub Station Alpha
Duration                                 : 13 min 35 s
Bit rate                                 : 79 b/s
Count of elements                        : 105
Compression mode                         : Lossless
Stream size                              : 7.95 KiB (0%)
Title                                    : Russian
Language                                 : Russian
Default                                  : No
Forced                                   : No

Text #8
ID                                       : 10
Format                                   : ASS
Codec ID                                 : S_TEXT/ASS
Codec ID/Info                            : Advanced Sub Station Alpha
Duration                                 : 12 min 50 s
Bit rate                                 : 52 b/s
Count of elements                        : 92
Compression mode                         : Lossless
Stream size                              : 4.91 KiB (0%)
Title                                    : Spanish1
Language                                 : Spanish
Default                                  : No
Forced                                   : No

Text #9
ID                                       : 11
Format                                   : ASS
Codec ID                                 : S_TEXT/ASS
Codec ID/Info                            : Advanced Sub Station Alpha
Duration                                 : 12 min 50 s
Bit rate                                 : 51 b/s
Count of elements                        : 92
Compression mode                         : Lossless
Stream size                              : 4.81 KiB (0%)
Title                                    : Spanish2
Language                                 : Spanish
Default                                  : No
Forced                                   : No

Other Files in this Torrent
[zza] Manaria Friends - 08 [1080p.x265].mkv
beta
Anime DDL+NZB mirror
Current Time: 05/12/2020 18:16



About/FAQs