File Size94.88 MB (99,484,339 bytes)
DownloadAnonFiles | ClickNUpload | DropAPK | Free | MultiUp
  • BdUpload
  • DownAce
  • Fichier
  • FileCloud
  • Filerio
  • FilesCdn
  • IndiShare
  • Kbagi
  • Turbobit
  • UpToBox
  • Uppit
| Sendspace | SolidFiles | ZippyShare
HashesCRC32: F4A178CA, MD5: DCCB863AA552184DBE7F4E39863902A1, SHA1: E17032DEFB6D79A7B2614E8A54C89134B4728CAD, SHA256: DB06835325F518BB817F3768983E97FBFA470E0CCFB869DA5C4450A84D554724, ED2K: 2474C8D16B76E3D91D5A648088CA7973
Screenshots
screenshotscreenshotscreenshotscreenshotscreenshot
SubtitlesAll Attachments | English [eng, ASS], Arabic [ara, ASS], French [fre, ASS], German [ger, ASS], Italian [ita, ASS], Portuguese [por, ASS], Russian [rus, ASS], Spanish1 [spa, ASS], Spanish2 [spa, ASS]
Additional Info
General
Unique ID                                : 309524650243728157918057436417119728817 (0xE8DC477C78C4B458033CB1D2504FB4B1)
Complete name                            : [zza] Manaria Friends - 05 [1080p.x265].mkv
Format                                   : Matroska
Format version                           : Version 4
File size                                : 94.9 MiB
Duration                                 : 14 min 32 s
Overall bit rate                         : 912 kb/s
Movie name                               : [zza] Manaria Friends - 05 - Academy Down
Encoded date                             : UTC 2020-08-26 12:00:37
Writing application                      : mkvmerge v38.0.0 ('The Silent Type') 64-bit
Writing library                          : libebml v1.3.9 + libmatroska v1.5.2
Cover                                    : Yes
Attachments                              : cover.jpg

Video
ID                                       : 1
Format                                   : HEVC
Format/Info                              : High Efficiency Video Coding
Format profile                           : Main 10@L5@Main
Codec ID                                 : V_MPEGH/ISO/HEVC
Duration                                 : 14 min 32 s
Bit rate                                 : 715 kb/s
Width                                    : 1 920 pixels
Height                                   : 1 080 pixels
Display aspect ratio                     : 16:9
Frame rate mode                          : Constant
Frame rate                               : 23.976 (24000/1001) FPS
Color space                              : YUV
Chroma subsampling                       : 4:2:0
Bit depth                                : 10 bits
Bits/(Pixel*Frame)                       : 0.014
Stream size                              : 74.4 MiB (78%)
Language                                 : zza
Default                                  : Yes
Forced                                   : No
Color range                              : Limited

Audio
ID                                       : 2
Format                                   : E-AC-3
Format/Info                              : Enhanced AC-3
Commercial name                          : Dolby Digital Plus
Codec ID                                 : A_EAC3
Duration                                 : 14 min 32 s
Bit rate mode                            : Constant
Bit rate                                 : 192 kb/s
Channel(s)                               : 2 channels
Channel layout                           : L R
Sampling rate                            : 44.1 kHz
Frame rate                               : 28.711 FPS (1536 SPF)
Compression mode                         : Lossy
Stream size                              : 20.0 MiB (21%)
Language                                 : Japanese
Service kind                             : Complete Main
Default                                  : Yes
Forced                                   : No

Text #1
ID                                       : 3
Format                                   : ASS
Codec ID                                 : S_TEXT/ASS
Codec ID/Info                            : Advanced Sub Station Alpha
Duration                                 : 13 min 24 s
Bit rate                                 : 151 b/s
Count of elements                        : 219
Compression mode                         : Lossless
Stream size                              : 14.9 KiB (0%)
Title                                    : English
Language                                 : English
Default                                  : Yes
Forced                                   : No

Text #2
ID                                       : 4
Format                                   : ASS
Codec ID                                 : S_TEXT/ASS
Codec ID/Info                            : Advanced Sub Station Alpha
Duration                                 : 13 min 24 s
Bit rate                                 : 172 b/s
Count of elements                        : 202
Compression mode                         : Lossless
Stream size                              : 17.0 KiB (0%)
Title                                    : Arabic
Language                                 : Arabic
Default                                  : No
Forced                                   : No

Text #3
ID                                       : 5
Format                                   : ASS
Codec ID                                 : S_TEXT/ASS
Codec ID/Info                            : Advanced Sub Station Alpha
Duration                                 : 13 min 24 s
Bit rate                                 : 116 b/s
Count of elements                        : 176
Compression mode                         : Lossless
Stream size                              : 11.5 KiB (0%)
Title                                    : French
Language                                 : French
Default                                  : No
Forced                                   : No

Text #4
ID                                       : 6
Format                                   : ASS
Codec ID                                 : S_TEXT/ASS
Codec ID/Info                            : Advanced Sub Station Alpha
Duration                                 : 13 min 25 s
Bit rate                                 : 122 b/s
Count of elements                        : 198
Compression mode                         : Lossless
Stream size                              : 12.0 KiB (0%)
Title                                    : German
Language                                 : German
Default                                  : No
Forced                                   : No

Text #5
ID                                       : 7
Format                                   : ASS
Codec ID                                 : S_TEXT/ASS
Codec ID/Info                            : Advanced Sub Station Alpha
Duration                                 : 13 min 24 s
Bit rate                                 : 133 b/s
Count of elements                        : 200
Compression mode                         : Lossless
Stream size                              : 13.1 KiB (0%)
Title                                    : Italian
Language                                 : Italian
Default                                  : No
Forced                                   : No

Text #6
ID                                       : 8
Format                                   : ASS
Codec ID                                 : S_TEXT/ASS
Codec ID/Info                            : Advanced Sub Station Alpha
Duration                                 : 13 min 24 s
Bit rate                                 : 122 b/s
Count of elements                        : 197
Compression mode                         : Lossless
Stream size                              : 12.0 KiB (0%)
Title                                    : Portuguese
Language                                 : Portuguese
Default                                  : No
Forced                                   : No

Text #7
ID                                       : 9
Format                                   : ASS
Codec ID                                 : S_TEXT/ASS
Codec ID/Info                            : Advanced Sub Station Alpha
Duration                                 : 13 min 39 s
Bit rate                                 : 189 b/s
Count of elements                        : 206
Compression mode                         : Lossless
Stream size                              : 18.9 KiB (0%)
Title                                    : Russian
Language                                 : Russian
Default                                  : No
Forced                                   : No

Text #8
ID                                       : 10
Format                                   : ASS
Codec ID                                 : S_TEXT/ASS
Codec ID/Info                            : Advanced Sub Station Alpha
Duration                                 : 13 min 25 s
Bit rate                                 : 104 b/s
Count of elements                        : 181
Compression mode                         : Lossless
Stream size                              : 10.3 KiB (0%)
Title                                    : Spanish1
Language                                 : Spanish
Default                                  : No
Forced                                   : No

Text #9
ID                                       : 11
Format                                   : ASS
Codec ID                                 : S_TEXT/ASS
Codec ID/Info                            : Advanced Sub Station Alpha
Duration                                 : 13 min 25 s
Bit rate                                 : 103 b/s
Count of elements                        : 181
Compression mode                         : Lossless
Stream size                              : 10.2 KiB (0%)
Title                                    : Spanish2
Language                                 : Spanish
Default                                  : No
Forced                                   : No

Other Files in this Torrent
[zza] Manaria Friends - 05 [1080p.x265].mkv
beta
Anime DDL+NZB mirror
Current Time: 05/12/2020 17:44



About/FAQs