File Size77.68 MB (81,449,959 bytes)
DownloadAnonFiles | ClickNUpload | DropAPK | Free | MultiUp
  • BdUpload
  • DownAce
  • Fichier
  • FileCloud
  • Filerio
  • FilesCdn
  • IndiShare
  • Kbagi
  • Turbobit
  • UpToBox
  • Uppit
| Sendspace | SolidFiles | ZippyShare
HashesCRC32: 66682EE6, MD5: E423BB1C790452392551F752C14691D1, SHA1: 3235E1269AC70AC59109243E5C689A32638555B3, SHA256: 1DE984249A5C5A04A8369DC47EBD1EE90BDB8A8C6594131EFDDC9B72B9570BD6, ED2K: 2B74FD1C4E6278F0AB69122314E34A74
Screenshots
screenshotscreenshotscreenshotscreenshotscreenshot
SubtitlesAll Attachments | English [eng, ASS], Arabic [ara, ASS], French [fre, ASS], German [ger, ASS], Italian [ita, ASS], Portuguese [por, ASS], Russian [rus, ASS], Spanish1 [spa, ASS], Spanish2 [spa, ASS]
Additional Info
General
Unique ID                                : 339292628646543577936150155015807420482 (0xFF416222B3EEDCAC3F9182FEB5B1C842)
Complete name                            : [zza] Manaria Friends - 03 [1080p.x265].mkv
Format                                   : Matroska
Format version                           : Version 4
File size                                : 77.7 MiB
Duration                                 : 14 min 39 s
Overall bit rate                         : 741 kb/s
Movie name                               : [zza] Manaria Friends - 03 - Princess's Holiday
Encoded date                             : UTC 2020-08-26 12:00:30
Writing application                      : mkvmerge v38.0.0 ('The Silent Type') 64-bit
Writing library                          : libebml v1.3.9 + libmatroska v1.5.2
Cover                                    : Yes
Attachments                              : cover.jpg

Video
ID                                       : 1
Format                                   : HEVC
Format/Info                              : High Efficiency Video Coding
Format profile                           : Main 10@L5@Main
Codec ID                                 : V_MPEGH/ISO/HEVC
Duration                                 : 14 min 39 s
Bit rate                                 : 544 kb/s
Width                                    : 1 920 pixels
Height                                   : 1 080 pixels
Display aspect ratio                     : 16:9
Frame rate mode                          : Constant
Frame rate                               : 23.976 (24000/1001) FPS
Color space                              : YUV
Chroma subsampling                       : 4:2:0
Bit depth                                : 10 bits
Bits/(Pixel*Frame)                       : 0.011
Stream size                              : 57.1 MiB (73%)
Language                                 : zza
Default                                  : Yes
Forced                                   : No
Color range                              : Limited

Audio
ID                                       : 2
Format                                   : E-AC-3
Format/Info                              : Enhanced AC-3
Commercial name                          : Dolby Digital Plus
Codec ID                                 : A_EAC3
Duration                                 : 14 min 39 s
Bit rate mode                            : Constant
Bit rate                                 : 192 kb/s
Channel(s)                               : 2 channels
Channel layout                           : L R
Sampling rate                            : 44.1 kHz
Frame rate                               : 28.711 FPS (1536 SPF)
Compression mode                         : Lossy
Stream size                              : 20.1 MiB (26%)
Language                                 : Japanese
Service kind                             : Complete Main
Default                                  : Yes
Forced                                   : No

Text #1
ID                                       : 3
Format                                   : ASS
Codec ID                                 : S_TEXT/ASS
Codec ID/Info                            : Advanced Sub Station Alpha
Duration                                 : 13 min 14 s
Bit rate                                 : 98 b/s
Count of elements                        : 164
Compression mode                         : Lossless
Stream size                              : 9.52 KiB (0%)
Title                                    : English
Language                                 : English
Default                                  : Yes
Forced                                   : No

Text #2
ID                                       : 4
Format                                   : ASS
Codec ID                                 : S_TEXT/ASS
Codec ID/Info                            : Advanced Sub Station Alpha
Duration                                 : 13 min 13 s
Bit rate                                 : 119 b/s
Count of elements                        : 160
Compression mode                         : Lossless
Stream size                              : 11.6 KiB (0%)
Title                                    : Arabic
Language                                 : Arabic
Default                                  : No
Forced                                   : No

Text #3
ID                                       : 5
Format                                   : ASS
Codec ID                                 : S_TEXT/ASS
Codec ID/Info                            : Advanced Sub Station Alpha
Duration                                 : 13 min 13 s
Bit rate                                 : 91 b/s
Count of elements                        : 147
Compression mode                         : Lossless
Stream size                              : 8.86 KiB (0%)
Title                                    : French
Language                                 : French
Default                                  : No
Forced                                   : No

Text #4
ID                                       : 6
Format                                   : ASS
Codec ID                                 : S_TEXT/ASS
Codec ID/Info                            : Advanced Sub Station Alpha
Duration                                 : 13 min 13 s
Bit rate                                 : 92 b/s
Count of elements                        : 162
Compression mode                         : Lossless
Stream size                              : 8.98 KiB (0%)
Title                                    : German
Language                                 : German
Default                                  : No
Forced                                   : No

Text #5
ID                                       : 7
Format                                   : ASS
Codec ID                                 : S_TEXT/ASS
Codec ID/Info                            : Advanced Sub Station Alpha
Duration                                 : 13 min 14 s
Bit rate                                 : 96 b/s
Count of elements                        : 167
Compression mode                         : Lossless
Stream size                              : 9.38 KiB (0%)
Title                                    : Italian
Language                                 : Italian
Default                                  : No
Forced                                   : No

Text #6
ID                                       : 8
Format                                   : ASS
Codec ID                                 : S_TEXT/ASS
Codec ID/Info                            : Advanced Sub Station Alpha
Duration                                 : 13 min 13 s
Bit rate                                 : 93 b/s
Count of elements                        : 161
Compression mode                         : Lossless
Stream size                              : 9.07 KiB (0%)
Title                                    : Portuguese
Language                                 : Portuguese
Default                                  : No
Forced                                   : No

Text #7
ID                                       : 9
Format                                   : ASS
Codec ID                                 : S_TEXT/ASS
Codec ID/Info                            : Advanced Sub Station Alpha
Duration                                 : 13 min 30 s
Bit rate                                 : 134 b/s
Count of elements                        : 169
Compression mode                         : Lossless
Stream size                              : 13.3 KiB (0%)
Title                                    : Russian
Language                                 : Russian
Default                                  : No
Forced                                   : No

Text #8
ID                                       : 10
Format                                   : ASS
Codec ID                                 : S_TEXT/ASS
Codec ID/Info                            : Advanced Sub Station Alpha
Duration                                 : 13 min 14 s
Bit rate                                 : 82 b/s
Count of elements                        : 151
Compression mode                         : Lossless
Stream size                              : 8.04 KiB (0%)
Title                                    : Spanish1
Language                                 : Spanish
Default                                  : No
Forced                                   : No

Text #9
ID                                       : 11
Format                                   : ASS
Codec ID                                 : S_TEXT/ASS
Codec ID/Info                            : Advanced Sub Station Alpha
Duration                                 : 13 min 14 s
Bit rate                                 : 82 b/s
Count of elements                        : 151
Compression mode                         : Lossless
Stream size                              : 8.02 KiB (0%)
Title                                    : Spanish2
Language                                 : Spanish
Default                                  : No
Forced                                   : No

Other Files in this Torrent
[zza] Manaria Friends - 03 [1080p.x265].mkv
beta
Anime DDL+NZB mirror
Current Time: 29/11/2020 13:04



About/FAQs