File Size124.6 MB (130,694,901 bytes)
DownloadAnonFiles | ClickNUpload | DropAPK | Free | MultiUp
  • BdUpload
  • DownAce
  • Fichier
  • FileCloud
  • Filerio
  • FilesCdn
  • IndiShare
  • Kbagi
  • Turbobit
  • UpToBox
  • Uppit
| Sendspace | SolidFiles | ZippyShare
HashesCRC32: E54C5199, MD5: BCD72788A7F46C7E8085054AF673AC77, SHA1: 34D69B799DEA0457E6AD0B17E29A28C3715B8FCA, SHA256: B04068EA05B72FD834D9A0D4D73D90E10D1E7978827C486E16ADC3F2297F315C, ED2K: 3BB8A76B6AD01A9DB9E656F1C3C970CB
Screenshots
screenshotscreenshotscreenshotscreenshotscreenshot
SubtitlesAll Attachments | English [eng, ASS], Arabic [ara, ASS], French [fre, ASS], German [ger, ASS], Italian [ita, ASS], Portuguese [por, ASS], Russian [rus, ASS], Spanish1 [spa, ASS], Spanish2 [spa, ASS]
Additional Info
General
Unique ID                                : 287911653353498122499030283949824298551 (0xD899C477CF558AA1D8752BDD41D84E37)
Complete name                            : [zza] Manaria Friends - 06 [1080p.x265].mkv
Format                                   : Matroska
Format version                           : Version 4
File size                                : 125 MiB
Duration                                 : 15 min 17 s
Overall bit rate                         : 1 139 kb/s
Movie name                               : [zza] Manaria Friends - 06 - Floating at Sea
Encoded date                             : UTC 2020-08-26 12:00:42
Writing application                      : mkvmerge v38.0.0 ('The Silent Type') 64-bit
Writing library                          : libebml v1.3.9 + libmatroska v1.5.2
Cover                                    : Yes
Attachments                              : cover.jpg

Video
ID                                       : 1
Format                                   : HEVC
Format/Info                              : High Efficiency Video Coding
Format profile                           : Main 10@L5@Main
Codec ID                                 : V_MPEGH/ISO/HEVC
Duration                                 : 15 min 17 s
Bit rate                                 : 943 kb/s
Width                                    : 1 920 pixels
Height                                   : 1 080 pixels
Display aspect ratio                     : 16:9
Frame rate mode                          : Constant
Frame rate                               : 23.976 (24000/1001) FPS
Color space                              : YUV
Chroma subsampling                       : 4:2:0
Bit depth                                : 10 bits
Bits/(Pixel*Frame)                       : 0.019
Stream size                              : 103 MiB (83%)
Language                                 : zza
Default                                  : Yes
Forced                                   : No
Color range                              : Limited

Audio
ID                                       : 2
Format                                   : E-AC-3
Format/Info                              : Enhanced AC-3
Commercial name                          : Dolby Digital Plus
Codec ID                                 : A_EAC3
Duration                                 : 15 min 17 s
Bit rate mode                            : Constant
Bit rate                                 : 192 kb/s
Channel(s)                               : 2 channels
Channel layout                           : L R
Sampling rate                            : 44.1 kHz
Frame rate                               : 28.711 FPS (1536 SPF)
Compression mode                         : Lossy
Stream size                              : 21.0 MiB (17%)
Language                                 : Japanese
Service kind                             : Complete Main
Default                                  : Yes
Forced                                   : No

Text #1
ID                                       : 3
Format                                   : ASS
Codec ID                                 : S_TEXT/ASS
Codec ID/Info                            : Advanced Sub Station Alpha
Duration                                 : 14 min 6 s
Bit rate                                 : 83 b/s
Count of elements                        : 142
Compression mode                         : Lossless
Stream size                              : 8.62 KiB (0%)
Title                                    : English
Language                                 : English
Default                                  : Yes
Forced                                   : No

Text #2
ID                                       : 4
Format                                   : ASS
Codec ID                                 : S_TEXT/ASS
Codec ID/Info                            : Advanced Sub Station Alpha
Duration                                 : 14 min 4 s
Bit rate                                 : 100 b/s
Count of elements                        : 137
Compression mode                         : Lossless
Stream size                              : 10.3 KiB (0%)
Title                                    : Arabic
Language                                 : Arabic
Default                                  : No
Forced                                   : No

Text #3
ID                                       : 5
Format                                   : ASS
Codec ID                                 : S_TEXT/ASS
Codec ID/Info                            : Advanced Sub Station Alpha
Duration                                 : 14 min 3 s
Bit rate                                 : 74 b/s
Count of elements                        : 130
Compression mode                         : Lossless
Stream size                              : 7.67 KiB (0%)
Title                                    : French
Language                                 : French
Default                                  : No
Forced                                   : No

Text #4
ID                                       : 6
Format                                   : ASS
Codec ID                                 : S_TEXT/ASS
Codec ID/Info                            : Advanced Sub Station Alpha
Duration                                 : 14 min 4 s
Bit rate                                 : 77 b/s
Count of elements                        : 145
Compression mode                         : Lossless
Stream size                              : 7.98 KiB (0%)
Title                                    : German
Language                                 : German
Default                                  : No
Forced                                   : No

Text #5
ID                                       : 7
Format                                   : ASS
Codec ID                                 : S_TEXT/ASS
Codec ID/Info                            : Advanced Sub Station Alpha
Duration                                 : 14 min 3 s
Bit rate                                 : 75 b/s
Count of elements                        : 138
Compression mode                         : Lossless
Stream size                              : 7.78 KiB (0%)
Title                                    : Italian
Language                                 : Italian
Default                                  : No
Forced                                   : No

Text #6
ID                                       : 8
Format                                   : ASS
Codec ID                                 : S_TEXT/ASS
Codec ID/Info                            : Advanced Sub Station Alpha
Duration                                 : 14 min 3 s
Bit rate                                 : 71 b/s
Count of elements                        : 138
Compression mode                         : Lossless
Stream size                              : 7.32 KiB (0%)
Title                                    : Portuguese
Language                                 : Portuguese
Default                                  : No
Forced                                   : No

Text #7
ID                                       : 9
Format                                   : ASS
Codec ID                                 : S_TEXT/ASS
Codec ID/Info                            : Advanced Sub Station Alpha
Duration                                 : 14 min 18 s
Bit rate                                 : 100 b/s
Count of elements                        : 137
Compression mode                         : Lossless
Stream size                              : 10.5 KiB (0%)
Title                                    : Russian
Language                                 : Russian
Default                                  : No
Forced                                   : No

Text #8
ID                                       : 10
Format                                   : ASS
Codec ID                                 : S_TEXT/ASS
Codec ID/Info                            : Advanced Sub Station Alpha
Duration                                 : 14 min 3 s
Bit rate                                 : 64 b/s
Count of elements                        : 126
Compression mode                         : Lossless
Stream size                              : 6.65 KiB (0%)
Title                                    : Spanish1
Language                                 : Spanish
Default                                  : No
Forced                                   : No

Text #9
ID                                       : 11
Format                                   : ASS
Codec ID                                 : S_TEXT/ASS
Codec ID/Info                            : Advanced Sub Station Alpha
Duration                                 : 14 min 3 s
Bit rate                                 : 64 b/s
Count of elements                        : 126
Compression mode                         : Lossless
Stream size                              : 6.60 KiB (0%)
Title                                    : Spanish2
Language                                 : Spanish
Default                                  : No
Forced                                   : No

Other Files in this Torrent
[zza] Manaria Friends - 06 [1080p.x265].mkv
beta
Anime DDL+NZB mirror
Current Time: 05/12/2020 17:42



About/FAQs