File Size80.44 MB (84,348,364 bytes)
DownloadAnonFiles | ClickNUpload | DropAPK | Free | MultiUp
  • BdUpload
  • DownAce
  • Fichier
  • FileCloud
  • Filerio
  • FilesCdn
  • IndiShare
  • Kbagi
  • Turbobit
  • UpToBox
  • Uppit
| Sendspace | SolidFiles | ZippyShare
HashesCRC32: 9DCFBB8F, MD5: 8B9D95C4B83CFCB1560AFCF3F13C0B01, SHA1: AB707B0DEA2638865ADBA6D344FE1049B70178CC, SHA256: 90DC9813F54ACFC09CA18DA4A29FEB6757C9DE8B9F1CA08B6B59CD81208A7D55, ED2K: 5DB3643B17D33B79EA19B97071B0A2DB
Screenshots
screenshotscreenshotscreenshotscreenshotscreenshot
SubtitlesAll Attachments | English [eng, ASS], Arabic [ara, ASS], French [fre, ASS], German [ger, ASS], Italian [ita, ASS], Portuguese [por, ASS], Russian [rus, ASS], Spanish1 [spa, ASS], Spanish2 [spa, ASS]
Additional Info
General
Unique ID                                : 60934435989994655767638945465513731366 (0x2DD78BA558E108E16D77D04948C6E526)
Complete name                            : [zza] Manaria Friends - 10 [1080p.x265].mkv
Format                                   : Matroska
Format version                           : Version 4
File size                                : 80.4 MiB
Duration                                 : 15 min 19 s
Overall bit rate                         : 733 kb/s
Movie name                               : [zza] Manaria Friends - 10 - The Pair's Promise
Encoded date                             : UTC 2020-08-26 12:00:59
Writing application                      : mkvmerge v38.0.0 ('The Silent Type') 64-bit
Writing library                          : libebml v1.3.9 + libmatroska v1.5.2
Cover                                    : Yes
Attachments                              : cover.jpg

Video
ID                                       : 1
Format                                   : HEVC
Format/Info                              : High Efficiency Video Coding
Format profile                           : Main 10@L5@Main
Codec ID                                 : V_MPEGH/ISO/HEVC
Duration                                 : 15 min 19 s
Bit rate                                 : 537 kb/s
Width                                    : 1 920 pixels
Height                                   : 1 080 pixels
Display aspect ratio                     : 16:9
Frame rate mode                          : Constant
Frame rate                               : 23.976 (24000/1001) FPS
Color space                              : YUV
Chroma subsampling                       : 4:2:0
Bit depth                                : 10 bits
Bits/(Pixel*Frame)                       : 0.011
Stream size                              : 58.9 MiB (73%)
Language                                 : zza
Default                                  : Yes
Forced                                   : No
Color range                              : Limited

Audio
ID                                       : 2
Format                                   : E-AC-3
Format/Info                              : Enhanced AC-3
Commercial name                          : Dolby Digital Plus
Codec ID                                 : A_EAC3
Duration                                 : 15 min 19 s
Bit rate mode                            : Constant
Bit rate                                 : 192 kb/s
Channel(s)                               : 2 channels
Channel layout                           : L R
Sampling rate                            : 44.1 kHz
Frame rate                               : 28.711 FPS (1536 SPF)
Compression mode                         : Lossy
Stream size                              : 21.1 MiB (26%)
Language                                 : Japanese
Service kind                             : Complete Main
Default                                  : Yes
Forced                                   : No

Text #1
ID                                       : 3
Format                                   : ASS
Codec ID                                 : S_TEXT/ASS
Codec ID/Info                            : Advanced Sub Station Alpha
Duration                                 : 14 min 6 s
Bit rate                                 : 107 b/s
Count of elements                        : 174
Compression mode                         : Lossless
Stream size                              : 11.1 KiB (0%)
Title                                    : English
Language                                 : English
Default                                  : Yes
Forced                                   : No

Text #2
ID                                       : 4
Format                                   : ASS
Codec ID                                 : S_TEXT/ASS
Codec ID/Info                            : Advanced Sub Station Alpha
Duration                                 : 14 min 6 s
Bit rate                                 : 132 b/s
Count of elements                        : 167
Compression mode                         : Lossless
Stream size                              : 13.7 KiB (0%)
Title                                    : Arabic
Language                                 : Arabic
Default                                  : No
Forced                                   : No

Text #3
ID                                       : 5
Format                                   : ASS
Codec ID                                 : S_TEXT/ASS
Codec ID/Info                            : Advanced Sub Station Alpha
Duration                                 : 14 min 7 s
Bit rate                                 : 105 b/s
Count of elements                        : 179
Compression mode                         : Lossless
Stream size                              : 10.9 KiB (0%)
Title                                    : French
Language                                 : French
Default                                  : No
Forced                                   : No

Text #4
ID                                       : 6
Format                                   : ASS
Codec ID                                 : S_TEXT/ASS
Codec ID/Info                            : Advanced Sub Station Alpha
Duration                                 : 14 min 7 s
Bit rate                                 : 97 b/s
Count of elements                        : 170
Compression mode                         : Lossless
Stream size                              : 10.1 KiB (0%)
Title                                    : German
Language                                 : German
Default                                  : No
Forced                                   : No

Text #5
ID                                       : 7
Format                                   : ASS
Codec ID                                 : S_TEXT/ASS
Codec ID/Info                            : Advanced Sub Station Alpha
Duration                                 : 14 min 6 s
Bit rate                                 : 105 b/s
Count of elements                        : 181
Compression mode                         : Lossless
Stream size                              : 10.9 KiB (0%)
Title                                    : Italian
Language                                 : Italian
Default                                  : No
Forced                                   : No

Text #6
ID                                       : 8
Format                                   : ASS
Codec ID                                 : S_TEXT/ASS
Codec ID/Info                            : Advanced Sub Station Alpha
Duration                                 : 14 min 6 s
Bit rate                                 : 98 b/s
Count of elements                        : 174
Compression mode                         : Lossless
Stream size                              : 10.2 KiB (0%)
Title                                    : Portuguese
Language                                 : Portuguese
Default                                  : No
Forced                                   : No

Text #7
ID                                       : 9
Format                                   : ASS
Codec ID                                 : S_TEXT/ASS
Codec ID/Info                            : Advanced Sub Station Alpha
Duration                                 : 14 min 27 s
Bit rate                                 : 141 b/s
Count of elements                        : 174
Compression mode                         : Lossless
Stream size                              : 15.0 KiB (0%)
Title                                    : Russian
Language                                 : Russian
Default                                  : No
Forced                                   : No

Text #8
ID                                       : 10
Format                                   : ASS
Codec ID                                 : S_TEXT/ASS
Codec ID/Info                            : Advanced Sub Station Alpha
Duration                                 : 14 min 7 s
Bit rate                                 : 86 b/s
Count of elements                        : 160
Compression mode                         : Lossless
Stream size                              : 8.95 KiB (0%)
Title                                    : Spanish1
Language                                 : Spanish
Default                                  : No
Forced                                   : No

Text #9
ID                                       : 11
Format                                   : ASS
Codec ID                                 : S_TEXT/ASS
Codec ID/Info                            : Advanced Sub Station Alpha
Duration                                 : 14 min 7 s
Bit rate                                 : 85 b/s
Count of elements                        : 159
Compression mode                         : Lossless
Stream size                              : 8.89 KiB (0%)
Title                                    : Spanish2
Language                                 : Spanish
Default                                  : No
Forced                                   : No

Other Files in this Torrent
[zza] Manaria Friends - 10 [1080p.x265].mkv
beta
Anime DDL+NZB mirror
Current Time: 29/11/2020 13:09



About/FAQs