Theaters/[MK-Pn8] Akame ga Kill! Theater - 22 [BD 720p][Dual][5B2C36D1].mkv


File Size10.92 MB (11,450,346 bytes)
DownloadGo4Up | Jheberg | MultiUp
  • ClickNupload
  • Fichier
  • Filerio
  • Free
  • Fufox
  • HugeFiles
  • Mightyupload
  • ToutBox
  • Turbobit
  • UpToBox
  • Uplea
  • UploadBaz
  • Uploadable
  • Uploaded
  • Uppit
  • Userscloud
  • ZippyShare
| OpenLoad | Sendspace | SolidFiles | UsersCloud
HashesCRC32: 5B2C36D1, MD5: 3899BAB7044A2CF0888F4F635CADEED1, SHA1: B80D5D90306155F27B523B2E908A19F6D06AF84C, SHA256: 5F8086F6C9F82C4AE570873D6457433289E64837825199699CA1FF4BE6DC9B12, ED2K: A37541FCF208467A056603F5A2E4BCB5
Screenshots
screenshot
SubtitlesAll Attachments | [Vivid-Asenshi] Signs [eng, ASS], [Vivid-Asenshi] Full Subtitles [jpn, ASS]
Additional Info
General
Unique ID                                : 197931488441070904370964624519536998103 (0x94E837D24B398C25A456B063862A76D7)
Complete name                            : [MK-Pn8] Akame ga Kill! Theater - 22 [BD 720p][Dual][5B2C36D1].mkv
Format                                   : Matroska
Format version                           : Version 4 / Version 2
File size                                : 10.9 MiB
Duration                                 : 1mn 22s
Overall bit rate                         : 1 115 Kbps
Encoded date                             : UTC 2016-07-03 02:51:36
Writing application                      : mkvmerge v9.2.0 ('Photograph') 64bit
Writing library                          : libebml v1.3.3 + libmatroska v1.4.4
Attachments                              : ARLRDBD.TTF / CK Marker.ttf / Sub-Alegreya-Bold.otf

Video
ID                                       : 1
Format                                   : AVC
Format/Info                              : Advanced Video Codec
Format profile                           : High 10@L4.1
Format settings, CABAC                   : Yes
Format settings, ReFrames                : 9 frames
Codec ID                                 : V_MPEG4/ISO/AVC
Duration                                 : 1mn 22s
Bit rate                                 : 734 Kbps
Width                                    : 1 280 pixels
Height                                   : 720 pixels
Display aspect ratio                     : 16:9
Frame rate mode                          : Constant
Frame rate                               : 23.976 (24000/1001) fps
Color space                              : YUV
Chroma subsampling                       : 4:2:0
Bit depth                                : 10 bits
Scan type                                : Progressive
Bits/(Pixel*Frame)                       : 0.033
Stream size                              : 7.18 MiB (66%)
Title                                    : [YYDM-11FANS] Jap BD 720p
Writing library                          : x264 core 142 r2431+42 c69a006 tMod [10-bit@all X86_64]
Encoding settings                        : cabac=1 / ref=9 / deblock=1:0:0 / analyse=0x3:0x133 / me=tesa / subme=10 / psy=1 / fade_compensate=0.00 / psy_rd=0.00:0.15 / mixed_ref=1 / me_range=24 / chroma_me=1 / trellis=2 / 8x8dct=1 / cqm=0 / deadzone=21,11 / fast_pskip=0 / chroma_qp_offset=-1 / threads=12 / lookahead_threads=2 / sliced_threads=0 / nr=0 / decimate=1 / interlaced=0 / bluray_compat=0 / constrained_intra=0 / fgo=1 / bframes=8 / b_pyramid=2 / b_adapt=2 / b_bias=0 / direct=3 / weightb=1 / open_gop=0 / weightp=2 / keyint=250 / keyint_min=1 / scenecut=40 / intra_refresh=0 / rc=crf / mbtree=0 / crf=18.0000 / qcomp=0.60 / qpmin=0:0:0 / qpmax=81:81:81 / qpstep=4 / ip_ratio=1.40 / pb_ratio=1.30 / aq=3:0.80 / aq-sensitivity=10.00 / aq-factor=1.00:1.00:1.00 / aq2=0 / aq3=0
Language                                 : Japanese
Default                                  : Yes
Forced                                   : No
Color range                              : Limited
Matrix coefficients                      : BT.709

Audio #1
ID                                       : 2
Format                                   : AAC
Format/Info                              : Advanced Audio Codec
Format profile                           : LC
Codec ID                                 : A_AAC
Duration                                 : 1mn 22s
Bit rate                                 : 155 Kbps
Channel(s)                               : 2 channels
Channel positions                        : Front: L R
Sampling rate                            : 48.0 KHz
Frame rate                               : 46.875 fps (1024 spf)
Compression mode                         : Lossy
Delay relative to video                  : 20ms
Stream size                              : 1.51 MiB (14%)
Title                                    : [MK] 2.0Ch AAC
Language                                 : English
Default                                  : Yes
Forced                                   : No

Audio #2
ID                                       : 3
Format                                   : AAC
Format/Info                              : Advanced Audio Codec
Format profile                           : LC
Codec ID                                 : A_AAC
Duration                                 : 1mn 22s
Bit rate                                 : 199 Kbps
Channel(s)                               : 2 channels
Channel positions                        : Front: L R
Sampling rate                            : 48.0 KHz
Frame rate                               : 46.875 fps (1024 spf)
Compression mode                         : Lossy
Stream size                              : 1.95 MiB (18%)
Title                                    : [YYDM-11FANS] 2.0Ch AAC
Language                                 : Japanese
Default                                  : No
Forced                                   : No

Text #1
ID                                       : 4
Format                                   : ASS
Codec ID                                 : S_TEXT/ASS
Codec ID/Info                            : Advanced Sub Station Alpha
Duration                                 : 1mn 16s
Bit rate                                 : 2 382 bps
Count of elements                        : 162
Compression mode                         : Lossless
Stream size                              : 22.2 KiB (0%)
Title                                    : [Vivid-Asenshi] Signs
Language                                 : English
Default                                  : Yes
Forced                                   : No

Text #2
ID                                       : 5
Format                                   : ASS
Codec ID                                 : S_TEXT/ASS
Codec ID/Info                            : Advanced Sub Station Alpha
Duration                                 : 1mn 19s
Bit rate                                 : 2 447 bps
Count of elements                        : 190
Compression mode                         : Lossless
Stream size                              : 23.7 KiB (0%)
Title                                    : [Vivid-Asenshi] Full Subtitles
Language                                 : Japanese
Default                                  : No
Forced                                   : No

Other Files in this Torrent
Theaters/[MK-Pn8] Akame ga Kill! Theater - 22 [BD 720p][Dual][5B2C36D1].mkv
beta
Anime DDL+NZB mirror
Current Time: 12/06/2024 18:13



About/FAQs

Discord