[MK-Pn8] Akame ga Kill! - 13v2 [BD 720p][Dual][9DA9432C].mkv


File Size387.6 MB (406,463,035 bytes)
DownloadGo4Up | Jheberg | MultiUp
  • ClickNupload
  • Fichier
  • Filerio
  • Free
  • Fufox
  • HugeFiles
  • Mightyupload
  • ToutBox
  • Turbobit
  • UpToBox
  • Uplea
  • UploadBaz
  • Uploadable
  • Uploaded
  • Uppit
  • Userscloud
| OpenLoad | SolidFiles | UsersCloud
Sendspace: Part1, Part2
HashesCRC32: 9DA9432C, MD5: CEB39452EDEFA28267B8977626B2AD49, SHA1: 02372414BE95D8D592EB64281E39E0B4A157D4C4, SHA256: 8FFA1746656BE739B4926709B510BEBFA959673CB03B3EB378AE77DF33F7F224, ED2K: 92005AD3A91864513DBB25A169511600
Screenshots
screenshotscreenshotscreenshotscreenshotscreenshot
SubtitlesAll Attachments | [MK] Signs & Songs [eng, ASS], [Vivid-Asenshi] Full Subtitles [jpn, ASS]
Additional Info
General
Unique ID                                : 201728174898554143860964615727657787288 (0x97C36EEA8B7E51728E8EA30E291C1F98)
Complete name                            : [MK-Pn8] Akame ga Kill! - 13v2 [BD 720p][Dual][9DA9432C].mkv
Format                                   : Matroska
Format version                           : Version 4 / Version 2
File size                                : 388 MiB
Duration                                 : 23mn 41s
Overall bit rate                         : 2 287 Kbps
Movie name                               : [MK-Pn8] Akame ga Kill! - 13v2 [BD 720p][Dual]
Encoded date                             : UTC 2016-07-02 11:20:33
Writing application                      : mkvmerge v9.2.0 ('Photograph') 64bit
Writing library                          : libebml v1.3.3 + libmatroska v1.4.4
Attachments                              : 9SALERNO.TTF / HumanaSerifITCLight.ttf / KozukaMinchoProStrp-EL.otf / Sub-Alegreya-Bold.otf / Sub-Alegreya-BoldItalic.otf

Video
ID                                       : 1
Format                                   : AVC
Format/Info                              : Advanced Video Codec
Format profile                           : High@L4.1
Format settings, CABAC                   : Yes
Format settings, ReFrames                : 9 frames
Codec ID                                 : V_MPEG4/ISO/AVC
Duration                                 : 23mn 41s
Bit rate                                 : 1 729 Kbps
Width                                    : 1 280 pixels
Height                                   : 720 pixels
Display aspect ratio                     : 16:9
Frame rate mode                          : Constant
Frame rate                               : 23.976 (24000/1001) fps
Color space                              : YUV
Chroma subsampling                       : 4:2:0
Bit depth                                : 8 bits
Scan type                                : Progressive
Bits/(Pixel*Frame)                       : 0.078
Stream size                              : 293 MiB (76%)
Title                                    : [VCB] JapBD 720p
Writing library                          : x264 core 142 r2431+42 c69a006 tMod [8-bit@all X86_64]
Encoding settings                        : cabac=1 / ref=9 / deblock=1:0:0 / analyse=0x3:0x133 / me=tesa / subme=10 / psy=1 / fade_compensate=0.20 / psy_rd=0.00:0.20 / mixed_ref=1 / me_range=16 / chroma_me=1 / trellis=2 / 8x8dct=1 / cqm=0 / deadzone=21,11 / fast_pskip=0 / chroma_qp_offset=-1 / threads=12 / lookahead_threads=2 / sliced_threads=0 / nr=0 / decimate=1 / interlaced=0 / bluray_compat=0 / constrained_intra=0 / fgo=1 / bframes=8 / b_pyramid=2 / b_adapt=2 / b_bias=0 / direct=3 / weightb=1 / open_gop=0 / weightp=2 / keyint=600 / keyint_min=1 / scenecut=40 / intra_refresh=0 / rc_lookahead=70 / rc=crf / mbtree=1 / crf=18.0000 / qcomp=0.70 / qpmin=0:0:0 / qpmax=69:69:69 / qpstep=4 / vbv_maxrate=15000 / vbv_bufsize=18000 / crf_max=0.0 / nal_hrd=none / filler=0 / ip_ratio=1.40 / aq=1:0.90 / aq-sensitivity=10.00 / aq-factor=1.00:1.00:1.00 / aq2=0 / aq3=0
Language                                 : Japanese
Default                                  : Yes
Forced                                   : No
Color range                              : Limited
Matrix coefficients                      : BT.709

Audio #1
ID                                       : 2
Format                                   : AAC
Format/Info                              : Advanced Audio Codec
Format profile                           : LC
Codec ID                                 : A_AAC
Duration                                 : 23mn 41s
Bit rate                                 : 420 Kbps
Channel(s)                               : 6 channels
Channel positions                        : Front: L C R, Side: L R, LFE
Sampling rate                            : 48.0 KHz
Frame rate                               : 46.875 fps (1024 spf)
Compression mode                         : Lossy
Delay relative to video                  : 8ms
Stream size                              : 71.2 MiB (18%)
Title                                    : [MK-Pn8] 5.1Ch AAC @~650kbps
Language                                 : English
Default                                  : Yes
Forced                                   : No

Audio #2
ID                                       : 3
Format                                   : AAC
Format/Info                              : Advanced Audio Codec
Format profile                           : LC
Codec ID                                 : A_AAC
Duration                                 : 23mn 41s
Bit rate                                 : 132 Kbps
Channel(s)                               : 2 channels
Channel positions                        : Front: L R
Sampling rate                            : 48.0 KHz
Frame rate                               : 46.875 fps (1024 spf)
Compression mode                         : Lossy
Stream size                              : 22.3 MiB (6%)
Title                                    : [VCB] 2.0Ch AAC
Language                                 : Japanese
Default                                  : No
Forced                                   : No

Text #1
ID                                       : 4
Format                                   : ASS
Codec ID                                 : S_TEXT/ASS
Codec ID/Info                            : Advanced Sub Station Alpha
Duration                                 : 22mn 55s
Bit rate                                 : 282 bps
Count of elements                        : 350
Compression mode                         : Lossless
Stream size                              : 47.4 KiB (0%)
Title                                    : [MK] Signs & Songs
Language                                 : English
Default                                  : Yes
Forced                                   : No

Text #2
ID                                       : 5
Format                                   : ASS
Codec ID                                 : S_TEXT/ASS
Codec ID/Info                            : Advanced Sub Station Alpha
Duration                                 : 23mn 40s
Bit rate                                 : 387 bps
Count of elements                        : 680
Compression mode                         : Lossless
Stream size                              : 67.2 KiB (0%)
Title                                    : [Vivid-Asenshi] Full Subtitles
Language                                 : Japanese
Default                                  : No
Forced                                   : No

Menu
00:00:00.000                             : :Intro
00:00:34.034                             : :OP
00:02:03.999                             : :Episode
00:21:54.980                             : :ED
00:23:24.987                             : :Preview

Other Files in this Torrent
[MK-Pn8] Akame ga Kill! - 13v2 [BD 720p][Dual][9DA9432C].mkv
beta
Anime DDL+NZB mirror
Current Time: 12/06/2024 19:06



About/FAQs

Discord