Theaters/[MK-Pn8] Akame ga Kill! Theater - 05 [BD 720p][Dual][CF6558B4].mkv


File Size14.71 MB (15,426,471 bytes)
DownloadGo4Up | Jheberg | MultiUp
  • ClickNupload
  • Fichier
  • Filerio
  • Free
  • Fufox
  • HugeFiles
  • Mightyupload
  • ToutBox
  • Turbobit
  • UpToBox
  • Uplea
  • UploadBaz
  • Uploadable
  • Uploaded
  • Uppit
  • Userscloud
  • ZippyShare
| OpenLoad | Sendspace | SolidFiles | UsersCloud
HashesCRC32: CF6558B4, MD5: 86BE1887FDBC1180C813A2394724B3F9, SHA1: CEB0B5609128B0A9D24E812CB7A31897BF21AF4C, SHA256: 40FFADAC89006C316E265351009EDEDDE9BB8285E60FD4EA94B35AC63C16EC1A, ED2K: 471F8E14EFD1E8CF6EB9D961292F94F6
Screenshots
screenshot
SubtitlesAll Attachments | [Vivid-Asenshi] Signs [eng, ASS], [Vivid-Asenshi] Full Subtitles [jpn, ASS]
Additional Info
General
Unique ID                                : 239219024723487711891934331792929791630 (0xB3F7E8863B386FF4896FA12A225B1E8E)
Complete name                            : [MK-Pn8] Akame ga Kill! Theater - 05 [BD 720p][Dual][CF6558B4].mkv
Format                                   : Matroska
Format version                           : Version 4 / Version 2
File size                                : 14.7 MiB
Duration                                 : 1mn 1s
Overall bit rate                         : 2 019 Kbps
Encoded date                             : UTC 2016-05-21 23:04:40
Writing application                      : mkvmerge v9.1.0 ('Little Earthquakes') 64bit
Writing library                          : libebml v1.3.3 + libmatroska v1.4.4
Attachments                              : ARLRDBD.TTF / Axe_Hand.ttf / EmilysHand Regular.ttf / SetFireToTheRain.ttf / Sub-Alegreya-Bold.otf / Waiting for the Sunrise.ttf

Video
ID                                       : 1
Format                                   : AVC
Format/Info                              : Advanced Video Codec
Format profile                           : High 10@L4.1
Format settings, CABAC                   : Yes
Format settings, ReFrames                : 9 frames
Codec ID                                 : V_MPEG4/ISO/AVC
Duration                                 : 1mn 1s
Bit rate                                 : 1 532 Kbps
Width                                    : 1 280 pixels
Height                                   : 720 pixels
Display aspect ratio                     : 16:9
Frame rate mode                          : Constant
Frame rate                               : 23.976 (24000/1001) fps
Color space                              : YUV
Chroma subsampling                       : 4:2:0
Bit depth                                : 10 bits
Scan type                                : Progressive
Bits/(Pixel*Frame)                       : 0.069
Stream size                              : 11.2 MiB (76%)
Title                                    : [YYDM-11FANS] Jap BD 720p
Writing library                          : x264 core 142 r2431+42 c69a006 tMod [10-bit@all X86_64]
Encoding settings                        : cabac=1 / ref=9 / deblock=1:0:0 / analyse=0x3:0x133 / me=tesa / subme=10 / psy=1 / fade_compensate=0.00 / psy_rd=0.00:0.15 / mixed_ref=1 / me_range=24 / chroma_me=1 / trellis=2 / 8x8dct=1 / cqm=0 / deadzone=21,11 / fast_pskip=0 / chroma_qp_offset=-1 / threads=12 / lookahead_threads=2 / sliced_threads=0 / nr=0 / decimate=1 / interlaced=0 / bluray_compat=0 / constrained_intra=0 / fgo=1 / bframes=8 / b_pyramid=2 / b_adapt=2 / b_bias=0 / direct=3 / weightb=1 / open_gop=0 / weightp=2 / keyint=250 / keyint_min=1 / scenecut=40 / intra_refresh=0 / rc=crf / mbtree=0 / crf=18.0000 / qcomp=0.60 / qpmin=0:0:0 / qpmax=81:81:81 / qpstep=4 / ip_ratio=1.40 / pb_ratio=1.30 / aq=3:0.80 / aq-sensitivity=10.00 / aq-factor=1.00:1.00:1.00 / aq2=0 / aq3=0
Language                                 : Japanese
Default                                  : Yes
Forced                                   : No
Color range                              : Limited
Matrix coefficients                      : BT.709

Audio #1
ID                                       : 2
Format                                   : AAC
Format/Info                              : Advanced Audio Codec
Format profile                           : LC
Codec ID                                 : A_AAC
Duration                                 : 1mn 1s
Bit rate                                 : 228 Kbps
Channel(s)                               : 2 channels
Channel positions                        : Front: L R
Sampling rate                            : 48.0 KHz
Frame rate                               : 46.875 fps (1024 spf)
Compression mode                         : Lossy
Delay relative to video                  : 20ms
Stream size                              : 1.66 MiB (11%)
Title                                    : [MK] 2.0Ch AAC
Language                                 : English
Default                                  : Yes
Forced                                   : No

Audio #2
ID                                       : 3
Format                                   : AAC
Format/Info                              : Advanced Audio Codec
Format profile                           : LC
Codec ID                                 : A_AAC
Duration                                 : 1mn 1s
Bit rate                                 : 192 Kbps
Channel(s)                               : 2 channels
Channel positions                        : Front: L R
Sampling rate                            : 48.0 KHz
Frame rate                               : 46.875 fps (1024 spf)
Compression mode                         : Lossy
Stream size                              : 1.41 MiB (10%)
Title                                    : [YYDM-11FANS] 2.0Ch AAC
Language                                 : Japanese
Default                                  : No
Forced                                   : No

Text #1
ID                                       : 4
Format                                   : ASS
Codec ID                                 : S_TEXT/ASS
Codec ID/Info                            : Advanced Sub Station Alpha
Duration                                 : 1mn 0s
Bit rate                                 : 8 002 bps
Count of elements                        : 823
Compression mode                         : Lossless
Stream size                              : 58.6 KiB (0%)
Title                                    : [Vivid-Asenshi] Signs
Language                                 : English
Default                                  : Yes
Forced                                   : No

Text #2
ID                                       : 5
Format                                   : ASS
Codec ID                                 : S_TEXT/ASS
Codec ID/Info                            : Advanced Sub Station Alpha
Duration                                 : 1mn 0s
Bit rate                                 : 8 217 bps
Count of elements                        : 851
Compression mode                         : Lossless
Stream size                              : 60.2 KiB (0%)
Title                                    : [Vivid-Asenshi] Full Subtitles
Language                                 : Japanese
Default                                  : No
Forced                                   : No

Other Files in this Torrent
Theaters/[MK-Pn8] Akame ga Kill! Theater - 05 [BD 720p][Dual][CF6558B4].mkv
beta
Anime DDL+NZB mirror
Current Time: 23/06/2024 09:22



About/FAQs

Discord