[MK-Pn8] Akame ga Kill! - 10v2 [BD 720p][Dual][3E89C4C6].mkv


File Size414.8 MB (434,947,796 bytes)
DownloadGo4Up | Jheberg | MultiUp
  • ClickNupload
  • Fichier
  • Filerio
  • Free
  • Fufox
  • HugeFiles
  • Mightyupload
  • ToutBox
  • Turbobit
  • UpToBox
  • Uplea
  • UploadBaz
  • Uploadable
  • Uploaded
  • Uppit
  • Userscloud
| OpenLoad | SolidFiles | UsersCloud
Sendspace: Part1, Part2
HashesCRC32: 3E89C4C6, MD5: 4A9A90C74B832604DE26F2CDEC175012, SHA1: D0FEEC579939A1ACC5B10DA5110EB1E206C5C2E4, SHA256: EC337CECCB8EFBB9DC08F23AA65A4197F389878182ED96F15477482EBE82136E, ED2K: C03A7E1B27C957EA45AD24C91B1460F5
Screenshots
screenshotscreenshotscreenshotscreenshotscreenshot
SubtitlesAll Attachments | [MK] Signs & Songs [eng, ASS], [Vivid-Asenshi] Full Subtitles [jpn, ASS]
Additional Info
General
Unique ID                                : 235807088330225037806950162407231636445 (0xB166CB1285FD735DB07F33009CF0C3DD)
Complete name                            : [MK-Pn8] Akame ga Kill! - 10v2 [BD 720p][Dual][3E89C4C6].mkv
Format                                   : Matroska
Format version                           : Version 4 / Version 2
File size                                : 415 MiB
Duration                                 : 23mn 41s
Overall bit rate                         : 2 448 Kbps
Movie name                               : [MK-Pn8] Akame ga Kill! - 10v2 [BD 720p][Dual]
Encoded date                             : UTC 2016-02-02 09:32:56
Writing application                      : mkvmerge v8.8.0 ('Wind at my back') 64bit
Writing library                          : libebml v1.3.3 + libmatroska v1.4.4
Attachments                              : Sub-Alegreya-BoldItalic.otf / 9SALERNO.TTF / HumanaSerifITCLight.ttf / KozukaMinchoProStrp-EL.otf / Sub-Alegreya-Bold.otf

Video
ID                                       : 1
Format                                   : AVC
Format/Info                              : Advanced Video Codec
Format profile                           : High@L4.1
Format settings, CABAC                   : Yes
Format settings, ReFrames                : 9 frames
Codec ID                                 : V_MPEG4/ISO/AVC
Duration                                 : 23mn 41s
Bit rate                                 : 1 680 Kbps
Width                                    : 1 280 pixels
Height                                   : 720 pixels
Display aspect ratio                     : 16:9
Frame rate mode                          : Constant
Frame rate                               : 23.976 (24000/1001) fps
Color space                              : YUV
Chroma subsampling                       : 4:2:0
Bit depth                                : 8 bits
Scan type                                : Progressive
Bits/(Pixel*Frame)                       : 0.076
Stream size                              : 285 MiB (69%)
Title                                    : [VCB] JapBD 720p
Writing library                          : x264 core 142 r2431+42 c69a006 tMod [8-bit@all X86_64]
Encoding settings                        : cabac=1 / ref=9 / deblock=1:0:0 / analyse=0x3:0x133 / me=tesa / subme=10 / psy=1 / fade_compensate=0.20 / psy_rd=0.00:0.20 / mixed_ref=1 / me_range=16 / chroma_me=1 / trellis=2 / 8x8dct=1 / cqm=0 / deadzone=21,11 / fast_pskip=0 / chroma_qp_offset=-1 / threads=12 / lookahead_threads=2 / sliced_threads=0 / nr=0 / decimate=1 / interlaced=0 / bluray_compat=0 / constrained_intra=0 / fgo=1 / bframes=8 / b_pyramid=2 / b_adapt=2 / b_bias=0 / direct=3 / weightb=1 / open_gop=0 / weightp=2 / keyint=600 / keyint_min=1 / scenecut=40 / intra_refresh=0 / rc_lookahead=70 / rc=crf / mbtree=1 / crf=18.0000 / qcomp=0.70 / qpmin=0:0:0 / qpmax=69:69:69 / qpstep=4 / vbv_maxrate=15000 / vbv_bufsize=18000 / crf_max=0.0 / nal_hrd=none / filler=0 / ip_ratio=1.40 / aq=1:0.90 / aq-sensitivity=10.00 / aq-factor=1.00:1.00:1.00 / aq2=0 / aq3=0
Language                                 : Japanese
Default                                  : Yes
Forced                                   : No
Color range                              : Limited
Matrix coefficients                      : BT.709

Audio #1
ID                                       : 2
Format                                   : AAC
Format/Info                              : Advanced Audio Codec
Format profile                           : LC
Codec ID                                 : A_AAC
Duration                                 : 23mn 41s
Bit rate                                 : 630 Kbps
Channel(s)                               : 6 channels
Channel positions                        : Front: L C R, Side: L R, LFE
Sampling rate                            : 48.0 KHz
Frame rate                               : 46.875 fps (1024 spf)
Compression mode                         : Lossy
Delay relative to video                  : 8ms
Stream size                              : 107 MiB (26%)
Title                                    : [MK-Pn8] 5.1Ch AAC @~650kbps
Language                                 : English
Default                                  : Yes
Forced                                   : No

Audio #2
ID                                       : 3
Format                                   : AAC
Format/Info                              : Advanced Audio Codec
Format profile                           : LC
Codec ID                                 : A_AAC
Duration                                 : 23mn 41s
Bit rate                                 : 132 Kbps
Channel(s)                               : 2 channels
Channel positions                        : Front: L R
Sampling rate                            : 48.0 KHz
Frame rate                               : 46.875 fps (1024 spf)
Compression mode                         : Lossy
Stream size                              : 22.3 MiB (5%)
Title                                    : [VCB] 2.0Ch AAC
Language                                 : Japanese
Default                                  : No
Forced                                   : No

Text #1
ID                                       : 4
Format                                   : ASS
Codec ID                                 : S_TEXT/ASS
Codec ID/Info                            : Advanced Sub Station Alpha
Duration                                 : 20mn 55s
Bit rate                                 : 309 bps
Count of elements                        : 349
Compression mode                         : Lossless
Stream size                              : 47.4 KiB (0%)
Title                                    : [MK] Signs & Songs
Language                                 : English
Default                                  : Yes
Forced                                   : No

Text #2
ID                                       : 5
Format                                   : ASS
Codec ID                                 : S_TEXT/ASS
Codec ID/Info                            : Advanced Sub Station Alpha
Duration                                 : 23mn 38s
Bit rate                                 : 402 bps
Count of elements                        : 761
Compression mode                         : Lossless
Stream size                              : 69.8 KiB (0%)
Title                                    : [Vivid-Asenshi] Full Subtitles
Language                                 : Japanese
Default                                  : No
Forced                                   : No

Menu
00:00:00.000                             : :Intro
00:02:31.985                             : :OP
00:04:01.992                             : :Episode
00:21:55.022                             : :ED
00:23:25.029                             : :Preview

Other Files in this Torrent
[MK-Pn8] Akame ga Kill! - 10v2 [BD 720p][Dual][3E89C4C6].mkv
beta
Anime DDL+NZB mirror
Current Time: 12/06/2024 19:13



About/FAQs

Discord