Theaters/[MK-Pn8] Akame ga Kill! Theater - 03 [BD 720p][Dual][FA9BB6A6].mkv


File Size10.80 MB (11,320,318 bytes)
DownloadGo4Up | Jheberg | MultiUp
  • ClickNupload
  • Fichier
  • Filerio
  • Free
  • Fufox
  • HugeFiles
  • Mightyupload
  • ToutBox
  • Turbobit
  • UpToBox
  • Uplea
  • UploadBaz
  • Uploadable
  • Uploaded
  • Uppit
  • Userscloud
  • ZippyShare
| OpenLoad | Sendspace | SolidFiles | UsersCloud
HashesCRC32: FA9BB6A6, MD5: 4AAC3081EAAA39954B46D10859727E5B, SHA1: CE613E44F4D7E4755DB5737426AEBD710F1869E9, SHA256: A13E07944BC9EB94B93B384F9186946D6370A7CF17ACCEE816E55CB3C87F715C, ED2K: F8DC749F3121B1E5173638553858D5F3
Screenshots
screenshot
SubtitlesAll Attachments | [Vivid-Asenshi] Signs [eng, ASS], [Vivid-Asenshi] Full Subtitles [jpn, ASS]
Additional Info
General
Unique ID                                : 238717762278912371088149206043123826974 (0xB3975E60B2E6C761B5A311743AFCC11E)
Complete name                            : [MK-Pn8] Akame ga Kill! Theater - 03 [BD 720p][Dual][FA9BB6A6].mkv
Format                                   : Matroska
Format version                           : Version 4 / Version 2
File size                                : 10.8 MiB
Duration                                 : 1mn 1s
Overall bit rate                         : 1 482 Kbps
Encoded date                             : UTC 2016-05-21 23:04:40
Writing application                      : mkvmerge v9.1.0 ('Little Earthquakes') 64bit
Writing library                          : libebml v1.3.3 + libmatroska v1.4.4
Attachments                              : ARLRDBD.TTF / HANDYHANDY.ttf / Sub-Alegreya-Bold.otf / Sub-Alegreya-BoldItalic.otf

Video
ID                                       : 1
Format                                   : AVC
Format/Info                              : Advanced Video Codec
Format profile                           : High 10@L4.1
Format settings, CABAC                   : Yes
Format settings, ReFrames                : 9 frames
Codec ID                                 : V_MPEG4/ISO/AVC
Duration                                 : 1mn 1s
Bit rate                                 : 1 004 Kbps
Width                                    : 1 280 pixels
Height                                   : 720 pixels
Display aspect ratio                     : 16:9
Frame rate mode                          : Constant
Frame rate                               : 23.976 (24000/1001) fps
Color space                              : YUV
Chroma subsampling                       : 4:2:0
Bit depth                                : 10 bits
Scan type                                : Progressive
Bits/(Pixel*Frame)                       : 0.045
Stream size                              : 7.31 MiB (68%)
Title                                    : [YYDM-11FANS] Jap BD 720p
Writing library                          : x264 core 142 r2431+42 c69a006 tMod [10-bit@all X86_64]
Encoding settings                        : cabac=1 / ref=9 / deblock=1:0:0 / analyse=0x3:0x133 / me=tesa / subme=10 / psy=1 / fade_compensate=0.00 / psy_rd=0.00:0.15 / mixed_ref=1 / me_range=24 / chroma_me=1 / trellis=2 / 8x8dct=1 / cqm=0 / deadzone=21,11 / fast_pskip=0 / chroma_qp_offset=-1 / threads=12 / lookahead_threads=2 / sliced_threads=0 / nr=0 / decimate=1 / interlaced=0 / bluray_compat=0 / constrained_intra=0 / fgo=1 / bframes=8 / b_pyramid=2 / b_adapt=2 / b_bias=0 / direct=3 / weightb=1 / open_gop=0 / weightp=2 / keyint=250 / keyint_min=1 / scenecut=40 / intra_refresh=0 / rc=crf / mbtree=0 / crf=18.0000 / qcomp=0.60 / qpmin=0:0:0 / qpmax=81:81:81 / qpstep=4 / ip_ratio=1.40 / pb_ratio=1.30 / aq=3:0.80 / aq-sensitivity=10.00 / aq-factor=1.00:1.00:1.00 / aq2=0 / aq3=0
Language                                 : Japanese
Default                                  : Yes
Forced                                   : No
Color range                              : Limited
Matrix coefficients                      : BT.709

Audio #1
ID                                       : 2
Format                                   : AAC
Format/Info                              : Advanced Audio Codec
Format profile                           : LC
Codec ID                                 : A_AAC
Duration                                 : 1mn 1s
Bit rate                                 : 246 Kbps
Channel(s)                               : 2 channels
Channel positions                        : Front: L R
Sampling rate                            : 48.0 KHz
Frame rate                               : 46.875 fps (1024 spf)
Compression mode                         : Lossy
Delay relative to video                  : 20ms
Stream size                              : 1.79 MiB (17%)
Title                                    : [MK] 2.0Ch AAC
Language                                 : English
Default                                  : Yes
Forced                                   : No

Audio #2
ID                                       : 3
Format                                   : AAC
Format/Info                              : Advanced Audio Codec
Format profile                           : LC
Codec ID                                 : A_AAC
Duration                                 : 1mn 1s
Bit rate                                 : 192 Kbps
Channel(s)                               : 2 channels
Channel positions                        : Front: L R
Sampling rate                            : 48.0 KHz
Frame rate                               : 46.875 fps (1024 spf)
Compression mode                         : Lossy
Stream size                              : 1.41 MiB (13%)
Title                                    : [YYDM-11FANS] 2.0Ch AAC
Language                                 : Japanese
Default                                  : No
Forced                                   : No

Text #1
ID                                       : 4
Format                                   : ASS
Codec ID                                 : S_TEXT/ASS
Codec ID/Info                            : Advanced Sub Station Alpha
Duration                                 : 1mn 0s
Bit rate                                 : 530 bps
Count of elements                        : 38
Compression mode                         : Lossless
Stream size                              : 3.89 KiB (0%)
Title                                    : [Vivid-Asenshi] Signs
Language                                 : English
Default                                  : Yes
Forced                                   : No

Text #2
ID                                       : 5
Format                                   : ASS
Codec ID                                 : S_TEXT/ASS
Codec ID/Info                            : Advanced Sub Station Alpha
Duration                                 : 1mn 0s
Bit rate                                 : 636 bps
Count of elements                        : 50
Compression mode                         : Lossless
Stream size                              : 4.66 KiB (0%)
Title                                    : [Vivid-Asenshi] Full Subtitles
Language                                 : Japanese
Default                                  : No
Forced                                   : No

Other Files in this Torrent
Theaters/[MK-Pn8] Akame ga Kill! Theater - 03 [BD 720p][Dual][FA9BB6A6].mkv
beta
Anime DDL+NZB mirror
Current Time: 16/06/2024 18:53



About/FAQs

Discord