Theaters/[MK-Pn8] Akame ga Kill! Theater - 19 [BD 720p][Dual][E057D0FD].mkv


File Size13.94 MB (14,619,318 bytes)
DownloadGo4Up | Jheberg | MultiUp
  • ClickNupload
  • Fichier
  • Filerio
  • Free
  • Fufox
  • HugeFiles
  • Mightyupload
  • ToutBox
  • Turbobit
  • UpToBox
  • Uplea
  • UploadBaz
  • Uploadable
  • Uploaded
  • Uppit
  • Userscloud
  • ZippyShare
| OpenLoad | Sendspace | SolidFiles | UsersCloud
HashesCRC32: E057D0FD, MD5: 35491192B1BD73201BF13825FE721E3C, SHA1: FA172EDD1E780FDED757E4FE3A4CB911C29CFC51, SHA256: D94FDE1AA4E896D93A79A3CDBBE7FBE9D2273298E8F2037921E2DAA77F234A94, ED2K: BB618F04892EAC7C2BCB1F78A5154E54
Screenshots
screenshot
SubtitlesAll Attachments | [Vivid-Asenshi] Signs [eng, ASS], [Vivid-Asenshi] Full Subtitles [jpn, ASS]
Additional Info
General
Unique ID                                : 207029029665836622139960587581086772954 (0x9BC0573BFCCDACED9D9A537342602EDA)
Complete name                            : [MK-Pn8] Akame ga Kill! Theater - 19 [BD 720p][Dual][E057D0FD].mkv
Format                                   : Matroska
Format version                           : Version 4 / Version 2
File size                                : 13.9 MiB
Duration                                 : 1mn 11s
Overall bit rate                         : 1 644 Kbps
Encoded date                             : UTC 2016-07-03 02:48:54
Writing application                      : mkvmerge v9.2.0 ('Photograph') 64bit
Writing library                          : libebml v1.3.3 + libmatroska v1.4.4
Attachments                              : ARLRDBD.TTF / EmilysHand Regular.ttf / Joshiraku_OP.ttf / Sub-Alegreya-Bold.otf / Sub-Alegreya-BoldItalic.otf / Waiting for the Sunrise.ttf / whatever it takes.ttf / Yoinks.ttf

Video
ID                                       : 1
Format                                   : AVC
Format/Info                              : Advanced Video Codec
Format profile                           : High 10@L4.1
Format settings, CABAC                   : Yes
Format settings, ReFrames                : 9 frames
Codec ID                                 : V_MPEG4/ISO/AVC
Duration                                 : 1mn 11s
Bit rate                                 : 1 206 Kbps
Width                                    : 1 280 pixels
Height                                   : 720 pixels
Display aspect ratio                     : 16:9
Frame rate mode                          : Constant
Frame rate                               : 23.976 (24000/1001) fps
Color space                              : YUV
Chroma subsampling                       : 4:2:0
Bit depth                                : 10 bits
Scan type                                : Progressive
Bits/(Pixel*Frame)                       : 0.055
Stream size                              : 10.2 MiB (73%)
Title                                    : [YYDM-11FANS] Jap BD 720p
Writing library                          : x264 core 142 r2431+42 c69a006 tMod [10-bit@all X86_64]
Encoding settings                        : cabac=1 / ref=9 / deblock=1:0:0 / analyse=0x3:0x133 / me=tesa / subme=10 / psy=1 / fade_compensate=0.00 / psy_rd=0.00:0.15 / mixed_ref=1 / me_range=24 / chroma_me=1 / trellis=2 / 8x8dct=1 / cqm=0 / deadzone=21,11 / fast_pskip=0 / chroma_qp_offset=-1 / threads=12 / lookahead_threads=2 / sliced_threads=0 / nr=0 / decimate=1 / interlaced=0 / bluray_compat=0 / constrained_intra=0 / fgo=1 / bframes=8 / b_pyramid=2 / b_adapt=2 / b_bias=0 / direct=3 / weightb=1 / open_gop=0 / weightp=2 / keyint=250 / keyint_min=1 / scenecut=40 / intra_refresh=0 / rc=crf / mbtree=0 / crf=18.0000 / qcomp=0.60 / qpmin=0:0:0 / qpmax=81:81:81 / qpstep=4 / ip_ratio=1.40 / pb_ratio=1.30 / aq=3:0.80 / aq-sensitivity=10.00 / aq-factor=1.00:1.00:1.00 / aq2=0 / aq3=0
Language                                 : Japanese
Default                                  : Yes
Forced                                   : No
Color range                              : Limited
Matrix coefficients                      : BT.709

Audio #1
ID                                       : 2
Format                                   : AAC
Format/Info                              : Advanced Audio Codec
Format profile                           : LC
Codec ID                                 : A_AAC
Duration                                 : 1mn 11s
Bit rate                                 : 151 Kbps
Channel(s)                               : 2 channels
Channel positions                        : Front: L R
Sampling rate                            : 48.0 KHz
Frame rate                               : 46.875 fps (1024 spf)
Compression mode                         : Lossy
Delay relative to video                  : 20ms
Stream size                              : 1.28 MiB (9%)
Title                                    : [MK] 2.0Ch AAC
Language                                 : English
Default                                  : Yes
Forced                                   : No

Audio #2
ID                                       : 3
Format                                   : AAC
Format/Info                              : Advanced Audio Codec
Format profile                           : LC
Codec ID                                 : A_AAC
Duration                                 : 1mn 11s
Bit rate                                 : 198 Kbps
Channel(s)                               : 2 channels
Channel positions                        : Front: L R
Sampling rate                            : 48.0 KHz
Frame rate                               : 46.875 fps (1024 spf)
Compression mode                         : Lossy
Stream size                              : 1.68 MiB (12%)
Title                                    : [YYDM-11FANS] 2.0Ch AAC
Language                                 : Japanese
Default                                  : No
Forced                                   : No

Text #1
ID                                       : 4
Format                                   : ASS
Codec ID                                 : S_TEXT/ASS
Codec ID/Info                            : Advanced Sub Station Alpha
Duration                                 : 1mn 9s
Bit rate                                 : 586 bps
Count of elements                        : 35
Compression mode                         : Lossless
Stream size                              : 4.94 KiB (0%)
Title                                    : [Vivid-Asenshi] Signs
Language                                 : English
Default                                  : Yes
Forced                                   : No

Text #2
ID                                       : 5
Format                                   : ASS
Codec ID                                 : S_TEXT/ASS
Codec ID/Info                            : Advanced Sub Station Alpha
Duration                                 : 1mn 9s
Bit rate                                 : 745 bps
Count of elements                        : 62
Compression mode                         : Lossless
Stream size                              : 6.28 KiB (0%)
Title                                    : [Vivid-Asenshi] Full Subtitles
Language                                 : Japanese
Default                                  : No
Forced                                   : No

Other Files in this Torrent
Theaters/[MK-Pn8] Akame ga Kill! Theater - 19 [BD 720p][Dual][E057D0FD].mkv
beta
Anime DDL+NZB mirror
Current Time: 12/06/2024 18:15



About/FAQs

Discord