File Size195.9 MB (205,398,938 bytes)
DownloadClickNUpload | Go4Up | Jheberg | MultiUp
  • BdUpload
  • DownAce
  • Fichier
  • FileCloud
  • Filerio
  • FilesCdn
  • IndiShare
  • Kbagi
  • Solidfiles
  • Turbobit
  • UpToBox
  • Uppit
| OpenLoad | Sendspace | ZippyShare
HashesCRC32: 05D19D22, MD5: 4698E8AFC1ADFE65924CCA077A0ACCAE, SHA1: A47444DF8B68765C37E46A6D2454B8EAB60B3B49, SHA256: E93990C2B7777AFAA439690B6B9A8B7FA2C490CB3946657B19DDAB02B59E28E4, ED2K: 2AF2E5AD759DD9416C7FAC6BBAB33632
Screenshots
screenshotscreenshotscreenshotscreenshotscreenshot
Additional Info
General
Complete name                            : Tokyo Ghoul - s03e23.mp4
Format                                   : MPEG-4
Format profile                           : Base Media / Version 2
Codec ID                                 : mp42 (isom/iso2/avc1/mp41)
File size                                : 196 MiB
Duration                                 : 24 min 10 s
Overall bit rate mode                    : Variable
Overall bit rate                         : 1 133 kb/s
Encoded date                             : UTC 2019-03-30 03:43:30
Tagged date                              : UTC 2019-03-30 03:43:30
Writing application                      : HandBrake 1.2.2 2019022300

Video
ID                                       : 1
Format                                   : AVC
Format/Info                              : Advanced Video Codec
Format profile                           : Main@L4
Format settings                          : CABAC / 1 Ref Frames
Format settings, CABAC                   : Yes
Format settings, ReFrames                : 1 frame
Codec ID                                 : avc1
Codec ID/Info                            : Advanced Video Coding
Duration                                 : 24 min 9 s
Bit rate mode                            : Variable
Bit rate                                 : 967 kb/s
Maximum bit rate                         : 2 000 kb/s
Width                                    : 1 280 pixels
Height                                   : 720 pixels
Display aspect ratio                     : 16:9
Frame rate mode                          : Variable
Frame rate                               : 23.976 (24000/1001) FPS
Minimum frame rate                       : 23.974 FPS
Maximum frame rate                       : 23.981 FPS
Color space                              : YUV
Chroma subsampling                       : 4:2:0
Bit depth                                : 8 bits
Scan type                                : Progressive
Bits/(Pixel*Frame)                       : 0.044
Stream size                              : 167 MiB (85%)
Encoded date                             : UTC 2019-03-30 03:43:30
Tagged date                              : UTC 2019-03-30 03:43:30
Color range                              : Limited
Color primaries                          : BT.709
Transfer characteristics                 : BT.709
Matrix coefficients                      : BT.709
Codec configuration box                  : avcC

Audio
ID                                       : 2
Format                                   : AAC LC
Format/Info                              : Advanced Audio Codec Low Complexity
Codec ID                                 : mp4a-40-2
Duration                                 : 24 min 10 s
Bit rate mode                            : Constant
Bit rate                                 : 161 kb/s
Channel(s)                               : 2 channels
Channel layout                           : L R
Sampling rate                            : 44.1 kHz
Frame rate                               : 43.066 FPS (1024 SPF)
Compression mode                         : Lossy
Stream size                              : 27.8 MiB (14%)
Title                                    : Stereo
Language                                 : Japanese
Default                                  : Yes
Alternate group                          : 1
Encoded date                             : UTC 2019-03-30 03:43:30
Tagged date                              : UTC 2019-03-30 03:43:30

Other Files in this Torrent
Season 3/Tokyo Ghoul - s03e23.mp4
beta
Anime DDL+NZB mirror
Current Time: 22/07/2019 23:39



About/FAQs