File Size146.9 MB (153,988,140 bytes)
DownloadClickNUpload | Go4Up | Jheberg | MultiUp
  • BdUpload
  • DownAce
  • Fichier
  • FileCloud
  • Filerio
  • FilesCdn
  • IndiShare
  • Kbagi
  • Solidfiles
  • Turbobit
  • UpToBox
  • Uppit
| OpenLoad | Sendspace | ZippyShare
HashesCRC32: 4E4ECA04, MD5: 79E6B9860AA5333CC13F390CBDC6A11B, SHA1: DA5C06B35C8E5BE110F9AF1B32076F0FF6E0B478, SHA256: 5D5A51B5DF7E5EB230127B771D79891DF9B5C5A7239551D0A71E7F0DCDE8D33C, ED2K: 4CA8BD5C88526C8F77D4FEDE97308AFE
Screenshots
screenshotscreenshotscreenshotscreenshotscreenshot
Additional Info
General
Complete name                            : Tokyo Ghoul - s02e08.mp4
Format                                   : MPEG-4
Format profile                           : Base Media / Version 2
Codec ID                                 : mp42 (isom/iso2/avc1/mp41)
File size                                : 147 MiB
Duration                                 : 24 min 11 s
Overall bit rate mode                    : Variable
Overall bit rate                         : 849 kb/s
Encoded date                             : UTC 2019-03-30 02:59:11
Tagged date                              : UTC 2019-03-30 02:59:11
Writing application                      : HandBrake 1.2.2 2019022300

Video
ID                                       : 1
Format                                   : AVC
Format/Info                              : Advanced Video Codec
Format profile                           : Main@L4
Format settings                          : CABAC / 1 Ref Frames
Format settings, CABAC                   : Yes
Format settings, ReFrames                : 1 frame
Codec ID                                 : avc1
Codec ID/Info                            : Advanced Video Coding
Duration                                 : 24 min 11 s
Bit rate mode                            : Variable
Bit rate                                 : 683 kb/s
Maximum bit rate                         : 2 000 kb/s
Width                                    : 1 280 pixels
Height                                   : 720 pixels
Display aspect ratio                     : 16:9
Frame rate mode                          : Variable
Frame rate                               : 23.976 (24000/1001) FPS
Minimum frame rate                       : 23.974 FPS
Maximum frame rate                       : 23.981 FPS
Color space                              : YUV
Chroma subsampling                       : 4:2:0
Bit depth                                : 8 bits
Scan type                                : Progressive
Bits/(Pixel*Frame)                       : 0.031
Stream size                              : 118 MiB (80%)
Encoded date                             : UTC 2019-03-30 02:59:11
Tagged date                              : UTC 2019-03-30 02:59:11
Color range                              : Limited
Color primaries                          : BT.709
Transfer characteristics                 : BT.709
Matrix coefficients                      : BT.709
Codec configuration box                  : avcC

Audio
ID                                       : 2
Format                                   : AAC LC
Format/Info                              : Advanced Audio Codec Low Complexity
Codec ID                                 : mp4a-40-2
Duration                                 : 24 min 11 s
Bit rate mode                            : Constant
Bit rate                                 : 161 kb/s
Channel(s)                               : 2 channels
Channel layout                           : L R
Sampling rate                            : 44.1 kHz
Frame rate                               : 43.066 FPS (1024 SPF)
Compression mode                         : Lossy
Stream size                              : 27.8 MiB (19%)
Title                                    : Stereo
Language                                 : English
Default                                  : Yes
Alternate group                          : 1
Encoded date                             : UTC 2019-03-30 02:59:11
Tagged date                              : UTC 2019-03-30 02:59:11

Other Files in this Torrent
Season 2/Tokyo Ghoul - s02e08.mp4
beta
Anime DDL+NZB mirror
Current Time: 20/11/2019 09:59



About/FAQs