File Size159.8 MB (167,515,351 bytes)
DownloadClickNUpload | Go4Up | Jheberg | MultiUp
  • BdUpload
  • DownAce
  • Fichier
  • FileCloud
  • Filerio
  • FilesCdn
  • IndiShare
  • Kbagi
  • Solidfiles
  • Turbobit
  • UpToBox
  • Uppit
| OpenLoad | Sendspace | ZippyShare
HashesCRC32: 5FCC7BB8, MD5: 33AAFF7BE116D0972F672C7B1C3F1E76, SHA1: 4D88042D3D9837330585E425B605148E5578EA5C, SHA256: F62DAC5B1832AB14ACD5394BEDCA2E28DE3D4B3875DE600C6688FAC042129BDB, ED2K: 3D84E0F369C602E5C4C6518036FEA03F
Screenshots
screenshotscreenshotscreenshotscreenshotscreenshot
Additional Info
General
Complete name                            : Tokyo Ghoul - s01e03.mp4
Format                                   : MPEG-4
Format profile                           : Base Media / Version 2
Codec ID                                 : mp42 (isom/iso2/avc1/mp41)
File size                                : 160 MiB
Duration                                 : 24 min 6 s
Overall bit rate mode                    : Variable
Overall bit rate                         : 927 kb/s
Encoded date                             : UTC 2019-03-30 02:25:51
Tagged date                              : UTC 2019-03-30 02:25:51
Writing application                      : HandBrake 1.2.2 2019022300

Video
ID                                       : 1
Format                                   : AVC
Format/Info                              : Advanced Video Codec
Format profile                           : Main@L4
Format settings                          : CABAC / 1 Ref Frames
Format settings, CABAC                   : Yes
Format settings, ReFrames                : 1 frame
Codec ID                                 : avc1
Codec ID/Info                            : Advanced Video Coding
Duration                                 : 24 min 6 s
Bit rate mode                            : Variable
Bit rate                                 : 759 kb/s
Maximum bit rate                         : 2 000 kb/s
Width                                    : 1 280 pixels
Height                                   : 720 pixels
Display aspect ratio                     : 16:9
Frame rate mode                          : Variable
Frame rate                               : 23.976 (24000/1001) FPS
Minimum frame rate                       : 23.974 FPS
Maximum frame rate                       : 23.981 FPS
Color space                              : YUV
Chroma subsampling                       : 4:2:0
Bit depth                                : 8 bits
Scan type                                : Progressive
Bits/(Pixel*Frame)                       : 0.034
Stream size                              : 131 MiB (82%)
Encoded date                             : UTC 2019-03-30 02:25:51
Tagged date                              : UTC 2019-03-30 02:25:51
Color range                              : Limited
Color primaries                          : BT.709
Transfer characteristics                 : BT.709
Matrix coefficients                      : BT.709
Codec configuration box                  : avcC

Audio
ID                                       : 2
Format                                   : AAC LC
Format/Info                              : Advanced Audio Codec Low Complexity
Codec ID                                 : mp4a-40-2
Duration                                 : 24 min 6 s
Bit rate mode                            : Constant
Bit rate                                 : 162 kb/s
Channel(s)                               : 2 channels
Channel layout                           : L R
Sampling rate                            : 44.1 kHz
Frame rate                               : 43.066 FPS (1024 SPF)
Compression mode                         : Lossy
Stream size                              : 27.9 MiB (17%)
Title                                    : Stereo
Language                                 : English
Default                                  : Yes
Alternate group                          : 1
Encoded date                             : UTC 2019-03-30 02:25:51
Tagged date                              : UTC 2019-03-30 02:25:51

Other Files in this Torrent
Season 1/Tokyo Ghoul - s01e03.mp4
beta
Anime DDL+NZB mirror
Current Time: 09/12/2019 02:17



About/FAQs