File Size146.2 MB (153,302,075 bytes)
DownloadClickNUpload | Go4Up | Jheberg | MultiUp
  • BdUpload
  • DownAce
  • Fichier
  • FileCloud
  • Filerio
  • FilesCdn
  • IndiShare
  • Kbagi
  • Solidfiles
  • Turbobit
  • UpToBox
  • Uppit
| OpenLoad | Sendspace | ZippyShare
HashesCRC32: 6CDCE96C, MD5: 5312CD1E4CBE4AB4013A6846D85E6B6A, SHA1: 8D0DB9021320330987313AC2D658F6A775BB6CAB, SHA256: 17933CD3ADDB1F6C473B70E29FD071434CC23E0B3ABD3CF2CC8B48BD337EA418, ED2K: CA90EE99DE59E2A4520776B0BD5BC9CE
Screenshots
screenshotscreenshotscreenshotscreenshotscreenshot
Additional Info
General
Complete name                            : Tokyo Ghoul - s02e03.mp4
Format                                   : MPEG-4
Format profile                           : Base Media / Version 2
Codec ID                                 : mp42 (isom/iso2/avc1/mp41)
File size                                : 146 MiB
Duration                                 : 24 min 14 s
Overall bit rate mode                    : Variable
Overall bit rate                         : 843 kb/s
Encoded date                             : UTC 2019-03-30 02:49:26
Tagged date                              : UTC 2019-03-30 02:49:26
Writing application                      : HandBrake 1.2.2 2019022300

Video
ID                                       : 1
Format                                   : AVC
Format/Info                              : Advanced Video Codec
Format profile                           : Main@L4
Format settings                          : CABAC / 1 Ref Frames
Format settings, CABAC                   : Yes
Format settings, ReFrames                : 1 frame
Codec ID                                 : avc1
Codec ID/Info                            : Advanced Video Coding
Duration                                 : 24 min 14 s
Bit rate mode                            : Variable
Bit rate                                 : 677 kb/s
Maximum bit rate                         : 2 000 kb/s
Width                                    : 1 280 pixels
Height                                   : 720 pixels
Display aspect ratio                     : 16:9
Frame rate mode                          : Variable
Frame rate                               : 23.976 (24000/1001) FPS
Minimum frame rate                       : 23.974 FPS
Maximum frame rate                       : 23.981 FPS
Color space                              : YUV
Chroma subsampling                       : 4:2:0
Bit depth                                : 8 bits
Scan type                                : Progressive
Bits/(Pixel*Frame)                       : 0.031
Stream size                              : 117 MiB (80%)
Encoded date                             : UTC 2019-03-30 02:49:26
Tagged date                              : UTC 2019-03-30 02:49:26
Color range                              : Limited
Color primaries                          : BT.709
Transfer characteristics                 : BT.709
Matrix coefficients                      : BT.709
Codec configuration box                  : avcC

Audio
ID                                       : 2
Format                                   : AAC LC
Format/Info                              : Advanced Audio Codec Low Complexity
Codec ID                                 : mp4a-40-2
Duration                                 : 24 min 14 s
Bit rate mode                            : Constant
Bit rate                                 : 161 kb/s
Channel(s)                               : 2 channels
Channel layout                           : L R
Sampling rate                            : 44.1 kHz
Frame rate                               : 43.066 FPS (1024 SPF)
Compression mode                         : Lossy
Stream size                              : 28.0 MiB (19%)
Title                                    : Stereo
Language                                 : English
Default                                  : Yes
Alternate group                          : 1
Encoded date                             : UTC 2019-03-30 02:49:26
Tagged date                              : UTC 2019-03-30 02:49:26

Other Files in this Torrent
Season 2/Tokyo Ghoul - s02e03.mp4
beta
Anime DDL+NZB mirror
Current Time: 20/11/2019 10:02



About/FAQs