File Size218.7 MB (229,281,952 bytes)
DownloadClickNUpload | Go4Up | Jheberg | MultiUp
  • BdUpload
  • DownAce
  • Fichier
  • FileCloud
  • Filerio
  • FilesCdn
  • IndiShare
  • Kbagi
  • Solidfiles
  • Turbobit
  • UpToBox
  • Uppit
| OpenLoad | Sendspace | ZippyShare
HashesCRC32: AAC7911C, MD5: A463FC1A95D920C23D5D9E47E7356AD9, SHA1: 51EFC2010E9177C2EED281D56CD1E769D9DFF624, SHA256: EEAF54C92BF53D4E9E2D01B4D2BD1976145851ACD6F2BB8B6A9026B35C4405C7, ED2K: 478B243671EC227A84FE1B9862B96619
Screenshots
screenshotscreenshotscreenshotscreenshotscreenshot
Additional Info
General
Complete name                            : Tokyo Ghoul - s02e05.mp4
Format                                   : MPEG-4
Format profile                           : Base Media / Version 2
Codec ID                                 : mp42 (isom/iso2/avc1/mp41)
File size                                : 219 MiB
Duration                                 : 24 min 10 s
Overall bit rate mode                    : Variable
Overall bit rate                         : 1 265 kb/s
Encoded date                             : UTC 2019-03-30 02:53:15
Tagged date                              : UTC 2019-03-30 02:53:15
Writing application                      : HandBrake 1.2.2 2019022300

Video
ID                                       : 1
Format                                   : AVC
Format/Info                              : Advanced Video Codec
Format profile                           : Main@L4
Format settings                          : CABAC / 1 Ref Frames
Format settings, CABAC                   : Yes
Format settings, ReFrames                : 1 frame
Codec ID                                 : avc1
Codec ID/Info                            : Advanced Video Coding
Duration                                 : 24 min 10 s
Bit rate mode                            : Variable
Bit rate                                 : 1 100 kb/s
Maximum bit rate                         : 2 000 kb/s
Width                                    : 1 280 pixels
Height                                   : 720 pixels
Display aspect ratio                     : 16:9
Frame rate mode                          : Variable
Frame rate                               : 23.976 (24000/1001) FPS
Minimum frame rate                       : 23.974 FPS
Maximum frame rate                       : 23.981 FPS
Color space                              : YUV
Chroma subsampling                       : 4:2:0
Bit depth                                : 8 bits
Scan type                                : Progressive
Bits/(Pixel*Frame)                       : 0.050
Stream size                              : 190 MiB (87%)
Encoded date                             : UTC 2019-03-30 02:53:15
Tagged date                              : UTC 2019-03-30 02:53:15
Color range                              : Limited
Color primaries                          : BT.709
Transfer characteristics                 : BT.709
Matrix coefficients                      : BT.709
Codec configuration box                  : avcC

Audio
ID                                       : 2
Format                                   : AAC LC
Format/Info                              : Advanced Audio Codec Low Complexity
Codec ID                                 : mp4a-40-2
Duration                                 : 24 min 10 s
Bit rate mode                            : Constant
Bit rate                                 : 159 kb/s
Channel(s)                               : 2 channels
Channel layout                           : L R
Sampling rate                            : 44.1 kHz
Frame rate                               : 43.066 FPS (1024 SPF)
Compression mode                         : Lossy
Stream size                              : 27.5 MiB (13%)
Title                                    : Stereo
Language                                 : English
Default                                  : Yes
Alternate group                          : 1
Encoded date                             : UTC 2019-03-30 02:53:15
Tagged date                              : UTC 2019-03-30 02:53:15

Other Files in this Torrent
Season 2/Tokyo Ghoul - s02e05.mp4
beta
Anime DDL+NZB mirror
Current Time: 13/11/2019 19:31



About/FAQs