File Size221.3 MB (232,037,032 bytes)
DownloadClickNUpload | Go4Up | Jheberg | MultiUp
  • BdUpload
  • DownAce
  • Fichier
  • FileCloud
  • Filerio
  • FilesCdn
  • IndiShare
  • Kbagi
  • Solidfiles
  • Turbobit
  • UpToBox
  • Uppit
| OpenLoad | Sendspace | ZippyShare
HashesCRC32: 3E46E2C5, MD5: 8DAEE4E88C1DBCE4A1CA0A6DC3A43D1C, SHA1: FC7DC7F1AB5722A7ADB2B39BEDB67CF344A52288, SHA256: 9EA68B411C776CDCBF4D2982AC1F2ACB17C4CFB8CAE96B3E79012FAC3B0508A7, ED2K: 73A1091DA4815A9819FE7E93E7C1B423
Screenshots
screenshotscreenshotscreenshotscreenshotscreenshot
Additional Info
General
Complete name                            : Tokyo Ghoul - s02e01.mp4
Format                                   : MPEG-4
Format profile                           : Base Media / Version 2
Codec ID                                 : mp42 (isom/iso2/avc1/mp41)
File size                                : 221 MiB
Duration                                 : 24 min 11 s
Overall bit rate mode                    : Variable
Overall bit rate                         : 1 279 kb/s
Encoded date                             : UTC 2019-03-30 02:45:33
Tagged date                              : UTC 2019-03-30 02:45:33
Writing application                      : HandBrake 1.2.2 2019022300

Video
ID                                       : 1
Format                                   : AVC
Format/Info                              : Advanced Video Codec
Format profile                           : Main@L4
Format settings                          : CABAC / 1 Ref Frames
Format settings, CABAC                   : Yes
Format settings, ReFrames                : 1 frame
Codec ID                                 : avc1
Codec ID/Info                            : Advanced Video Coding
Duration                                 : 24 min 11 s
Bit rate mode                            : Variable
Bit rate                                 : 1 118 kb/s
Maximum bit rate                         : 2 000 kb/s
Width                                    : 1 280 pixels
Height                                   : 720 pixels
Display aspect ratio                     : 16:9
Frame rate mode                          : Variable
Frame rate                               : 23.976 (24000/1001) FPS
Minimum frame rate                       : 23.974 FPS
Maximum frame rate                       : 23.981 FPS
Color space                              : YUV
Chroma subsampling                       : 4:2:0
Bit depth                                : 8 bits
Scan type                                : Progressive
Bits/(Pixel*Frame)                       : 0.051
Stream size                              : 193 MiB (87%)
Encoded date                             : UTC 2019-03-30 02:45:33
Tagged date                              : UTC 2019-03-30 02:45:33
Color range                              : Limited
Color primaries                          : BT.709
Transfer characteristics                 : BT.709
Matrix coefficients                      : BT.709
Codec configuration box                  : avcC

Audio
ID                                       : 2
Format                                   : AAC LC
Format/Info                              : Advanced Audio Codec Low Complexity
Codec ID                                 : mp4a-40-2
Duration                                 : 24 min 11 s
Bit rate mode                            : Constant
Bit rate                                 : 156 kb/s
Channel(s)                               : 2 channels
Channel layout                           : L R
Sampling rate                            : 44.1 kHz
Frame rate                               : 43.066 FPS (1024 SPF)
Compression mode                         : Lossy
Stream size                              : 27.0 MiB (12%)
Title                                    : Stereo
Language                                 : English
Default                                  : Yes
Alternate group                          : 1
Encoded date                             : UTC 2019-03-30 02:45:33
Tagged date                              : UTC 2019-03-30 02:45:33

Other Files in this Torrent
Season 2/Tokyo Ghoul - s02e01.mp4
beta
Anime DDL+NZB mirror
Current Time: 13/11/2019 05:13



About/FAQs