File Size26.94 MB (28,247,727 bytes)
DownloadClickNUpload | DailyUploads | DownloadGG | GoFile | KrakenFiles | MdiaLoad | MultiUp
  • BdUpload
  • DownAce
  • Fichier
  • FileCloud
  • Filerio
  • FilesCdn
  • IndiShare
  • Kbagi
  • Turbobit
  • UpToBox
  • Uppit
| Uppit
HashesCRC32: B31169D5, MD5: 814384F7C021A4F0919829D78849C5D3, SHA1: D73E3A979E3D0A21B74E0752441772DF9F2EB957, SHA256: C3DAA040CBF782BB6B3CBE05F5242DF3D6AFE943B658C23AF2DD0657AFE60BA9, ED2K: E236DC450D05DDF52A9A0AB8B03FB217
Screenshots
screenshot
SubtitlesAll Attachments | eng [PGS]
Additional Info
General
Unique ID                                : 23834905482387567739847502199303202093 (0x11EE6F91D5C8DDA9426668A64CE0652D)
Complete name                            : [DBD-Raws][真救世主传说 北斗神拳 健次郎传][PV][04][1080P][BDRip][HEVC-10bit][FLAC].mkv
Format                                   : Matroska
Format version                           : Version 4
File size                                : 26.9 MiB
Duration                                 : 30 s 65 ms
Overall bit rate mode                    : Variable
Overall bit rate                         : 7 516 kb/s
Frame rate                               : 23.976 FPS
Encoded date                             : 2024-04-02 13:28:43 UTC
Writing application                      : mkvmerge v55.0.0 ('Waiting For Space') 64-bit
Writing library                          : libebml v1.4.2 + libmatroska v1.6.4

Video
ID                                       : 1
Format                                   : HEVC
Format/Info                              : High Efficiency Video Coding
Format profile                           : Main 10@L5.1@High
Codec ID                                 : V_MPEGH/ISO/HEVC
Duration                                 : 30 s 30 ms
Bit rate                                 : 6 582 kb/s
Width                                    : 1 920 pixels
Height                                   : 1 080 pixels
Display aspect ratio                     : 16:9
Frame rate mode                          : Constant
Frame rate                               : 23.976 (24000/1001) FPS
Color space                              : YUV
Chroma subsampling                       : 4:2:0
Bit depth                                : 10 bits
Bits/(Pixel*Frame)                       : 0.132
Stream size                              : 23.6 MiB (87%)
Default                                  : Yes
Forced                                   : No

Audio
ID                                       : 2
Format                                   : FLAC
Format/Info                              : Free Lossless Audio Codec
Codec ID                                 : A_FLAC
Duration                                 : 30 s 65 ms
Bit rate mode                            : Variable
Bit rate                                 : 852 kb/s
Channel(s)                               : 2 channels
Channel layout                           : L R
Sampling rate                            : 48.0 kHz
Frame rate                               : 10.444 FPS (4596 SPF)
Bit depth                                : 16 bits
Compression mode                         : Lossless
Stream size                              : 3.05 MiB (11%)
Writing library                          : ShanaEncoder
Language                                 : Japanese
Default                                  : Yes
Forced                                   : No
MD5 of the unencoded content             : C85108A4AABA0C58005F879F51C76734

Text
ID                                       : 3
Format                                   : PGS
Muxing mode                              : zlib
Codec ID                                 : S_HDMV/PGS
Codec ID/Info                            : Picture based subtitle format used on BDs/HD-DVDs
Duration                                 : 29 s 563 ms
Bit rate                                 : 152 kb/s
Frame rate                               : 0.677 FPS
Count of elements                        : 20
Stream size                              : 549 KiB (2%)
Language                                 : English
Default                                  : Yes
Forced                                   : No

Other Files in this Torrent
PV/[DBD-Raws][真救世主传说 北斗神拳 健次郎传][PV][04][1080P][BDRip][HEVC-10bit][FLAC].mkv
beta
Anime DDL+NZB mirror
Current Time: 24/05/2024 23:12



About/FAQs

Discord