File Size17.22 MB (18,058,898 bytes)
DownloadClickNUpload | DailyUploads | DownloadGG | GoFile | KrakenFiles | MdiaLoad | MultiUp
  • BdUpload
  • DownAce
  • Fichier
  • FileCloud
  • Filerio
  • FilesCdn
  • IndiShare
  • Kbagi
  • Turbobit
  • UpToBox
  • Uppit
| Uppit
HashesCRC32: F12D6BFE, MD5: 2B36050A986DE833D4BD882BABC52A6A, SHA1: D01381066F1D5E3D1A87669085ABD6D3E2F18029, SHA256: 716707BB4A97E399FE8740D814563F799A33876F99354C0E5A2996BE7B2299CC, ED2K: 891ADF86C256CCA209468814815758F9
Screenshots
screenshot
SubtitlesAll Attachments | eng [PGS]
Additional Info
General
Unique ID                                : 82763258270229701532970428103787813850 (0x3E439FAD68D509C633F3CC32B3441BDA)
Complete name                            : [DBD-Raws][真救世主传说 北斗神拳 健次郎传][PV][03][1080P][BDRip][HEVC-10bit][FLAC].mkv
Format                                   : Matroska
Format version                           : Version 4
File size                                : 17.2 MiB
Duration                                 : 15 s 15 ms
Overall bit rate mode                    : Variable
Overall bit rate                         : 9 622 kb/s
Frame rate                               : 23.976 FPS
Encoded date                             : 2024-04-02 13:28:32 UTC
Writing application                      : mkvmerge v55.0.0 ('Waiting For Space') 64-bit
Writing library                          : libebml v1.4.2 + libmatroska v1.6.4

Video
ID                                       : 1
Format                                   : HEVC
Format/Info                              : High Efficiency Video Coding
Format profile                           : Main 10@L5.1@High
Codec ID                                 : V_MPEGH/ISO/HEVC
Duration                                 : 15 s 15 ms
Bit rate                                 : 8 563 kb/s
Width                                    : 1 920 pixels
Height                                   : 1 080 pixels
Display aspect ratio                     : 16:9
Frame rate mode                          : Constant
Frame rate                               : 23.976 (24000/1001) FPS
Color space                              : YUV
Chroma subsampling                       : 4:2:0
Bit depth                                : 10 bits
Bits/(Pixel*Frame)                       : 0.172
Stream size                              : 15.3 MiB (89%)
Default                                  : Yes
Forced                                   : No

Audio
ID                                       : 2
Format                                   : FLAC
Format/Info                              : Free Lossless Audio Codec
Codec ID                                 : A_FLAC
Duration                                 : 15 s 15 ms
Bit rate mode                            : Variable
Bit rate                                 : 891 kb/s
Channel(s)                               : 2 channels
Channel layout                           : L R
Sampling rate                            : 48.0 kHz
Frame rate                               : 10.456 FPS (4591 SPF)
Bit depth                                : 16 bits
Compression mode                         : Lossless
Stream size                              : 1.59 MiB (9%)
Writing library                          : ShanaEncoder
Language                                 : Japanese
Default                                  : Yes
Forced                                   : No
MD5 of the unencoded content             : F649B341A749689E42EDDD89C87C1F35

Text
ID                                       : 3
Format                                   : PGS
Muxing mode                              : zlib
Codec ID                                 : S_HDMV/PGS
Codec ID/Info                            : Picture based subtitle format used on BDs/HD-DVDs
Duration                                 : 13 s 914 ms
Bit rate                                 : 300 kb/s
Frame rate                               : 1.078 FPS
Count of elements                        : 15
Stream size                              : 509 KiB (3%)
Language                                 : English
Default                                  : Yes
Forced                                   : No

Other Files in this Torrent
PV/[DBD-Raws][真救世主传说 北斗神拳 健次郎传][PV][03][1080P][BDRip][HEVC-10bit][FLAC].mkv
beta
Anime DDL+NZB mirror
Current Time: 24/05/2024 23:38



About/FAQs

Discord