File Size77.39 MB (81,147,653 bytes)
DownloadClickNUpload | DailyUploads | DownloadGG | GoFile | KrakenFiles | MdiaLoad | MultiUp
  • BdUpload
  • DownAce
  • Fichier
  • FileCloud
  • Filerio
  • FilesCdn
  • IndiShare
  • Kbagi
  • Turbobit
  • UpToBox
  • Uppit
| Uppit
HashesCRC32: EFE97C46, MD5: 4A9B89F7878299AC4D3A7E683F1ED4AA, SHA1: A7AF982B04AE0D3AB17CB617EB712D2DA512DBBE, SHA256: 9943169182206303CA13680B25F77E1048D6E8E3281C0CA21FDBB3853097BC1D, ED2K: 9986FBD0E292681B5FD90EEB47CDF478
Screenshots
screenshotscreenshotscreenshotscreenshotscreenshot
Additional Info
General
Unique ID                                : 181903134649871326894097304514169343155 (0x88D944F76624700092CF796728130CB3)
Complete name                            : [DBD-Raws][真救世主传说 北斗神拳 健次郎传][ED][1080P][BDRip][HEVC-10bit][FLAC].mkv
Format                                   : Matroska
Format version                           : Version 4
File size                                : 77.4 MiB
Duration                                 : 4 min 47 s
Overall bit rate mode                    : Variable
Overall bit rate                         : 2 260 kb/s
Frame rate                               : 23.976 FPS
Encoded date                             : 2024-04-02 13:30:02 UTC
Writing application                      : mkvmerge v55.0.0 ('Waiting For Space') 64-bit
Writing library                          : libebml v1.4.2 + libmatroska v1.6.4

Video
ID                                       : 1
Format                                   : HEVC
Format/Info                              : High Efficiency Video Coding
Format profile                           : Main 10@L5.1@High
Codec ID                                 : V_MPEGH/ISO/HEVC
Duration                                 : 4 min 47 s
Bit rate                                 : 349 kb/s
Width                                    : 1 920 pixels
Height                                   : 1 080 pixels
Display aspect ratio                     : 16:9
Frame rate mode                          : Constant
Frame rate                               : 23.976 (24000/1001) FPS
Color space                              : YUV
Chroma subsampling                       : 4:2:0
Bit depth                                : 10 bits
Bits/(Pixel*Frame)                       : 0.007
Stream size                              : 12.0 MiB (15%)
Default                                  : Yes
Forced                                   : No

Audio
ID                                       : 2
Format                                   : FLAC
Format/Info                              : Free Lossless Audio Codec
Codec ID                                 : A_FLAC
Duration                                 : 4 min 47 s
Bit rate mode                            : Variable
Bit rate                                 : 1 909 kb/s
Channel(s)                               : 6 channels
Channel layout                           : L R C LFE Ls Rs
Sampling rate                            : 48.0 kHz
Frame rate                               : 10.417 FPS (4608 SPF)
Bit depth                                : 16 bits
Compression mode                         : Lossless
Stream size                              : 65.4 MiB (84%)
Writing library                          : ShanaEncoder
Default                                  : Yes
Forced                                   : No
MD5 of the unencoded content             : BC19A8BA3DF92A3A514CF3B18467FCA6

Other Files in this Torrent
ED/[DBD-Raws][真救世主传说 北斗神拳 健次郎传][ED][1080P][BDRip][HEVC-10bit][FLAC].mkv
beta
Anime DDL+NZB mirror
Current Time: 14/06/2024 19:55



About/FAQs

Discord