File Size148.2 MB (155,370,420 bytes)
DownloadClickNUpload | DailyUploads | DownloadGG | GoFile | KrakenFiles | MdiaLoad | MultiUp
  • BdUpload
  • DownAce
  • Fichier
  • FileCloud
  • Filerio
  • FilesCdn
  • IndiShare
  • Kbagi
  • Turbobit
  • UpToBox
  • Uppit
| Uppit
HashesCRC32: 318DFCD4, MD5: E37087B1A6C7FFEBC02C79148B624D02, SHA1: 72B3DCCF1A8E9260C976EB4D406F14C854F2E762, SHA256: 9EB2FE8816705E4997161157EF48C93F119587DE619EFCB2980D87F5E506EF2B, ED2K: 06C9110254D671C423EE9D19630438EF
Screenshots
screenshotscreenshot
Additional Info
General
Unique ID                                : 95484289087870868699373842271459709088 (0x47D59AEB967F66BD7ADCF68FD2ED90A0)
Complete name                            : [DBD-Raws][真救世主传说 北斗神拳 健次郎传][PV][01][1080P][BDRip][HEVC-10bit][AC3].mkv
Format                                   : Matroska
Format version                           : Version 4
File size                                : 148 MiB
Duration                                 : 2 min 3 s
Overall bit rate                         : 10.1 Mb/s
Frame rate                               : 23.976 FPS
Encoded date                             : 2024-04-02 13:26:56 UTC
Writing application                      : mkvmerge v55.0.0 ('Waiting For Space') 64-bit
Writing library                          : libebml v1.4.2 + libmatroska v1.6.4

Video
ID                                       : 1
Format                                   : HEVC
Format/Info                              : High Efficiency Video Coding
Format profile                           : Main 10@L5.1@High
Codec ID                                 : V_MPEGH/ISO/HEVC
Duration                                 : 2 min 3 s
Bit rate                                 : 9 857 kb/s
Width                                    : 1 920 pixels
Height                                   : 1 080 pixels
Display aspect ratio                     : 16:9
Frame rate mode                          : Constant
Frame rate                               : 23.976 (24000/1001) FPS
Color space                              : YUV
Chroma subsampling                       : 4:2:0
Bit depth                                : 10 bits
Bits/(Pixel*Frame)                       : 0.198
Stream size                              : 145 MiB (98%)
Default                                  : Yes
Forced                                   : No

Audio
ID                                       : 2
Format                                   : AC-3
Format/Info                              : Audio Coding 3
Commercial name                          : Dolby Digital
Codec ID                                 : A_AC3
Duration                                 : 2 min 3 s
Bit rate mode                            : Constant
Bit rate                                 : 192 kb/s
Channel(s)                               : 2 channels
Channel layout                           : L R
Sampling rate                            : 48.0 kHz
Frame rate                               : 31.250 FPS (1536 SPF)
Compression mode                         : Lossy
Stream size                              : 2.83 MiB (2%)
Language                                 : English
Service kind                             : Complete Main
Default                                  : Yes
Forced                                   : No

Other Files in this Torrent
PV/[DBD-Raws][真救世主传说 北斗神拳 健次郎传][PV][01][1080P][BDRip][HEVC-10bit][AC3].mkv
beta
Anime DDL+NZB mirror
Current Time: 19/05/2024 17:18



About/FAQs

Discord