File Size171.8 MB (180,136,067 bytes)
DownloadClickNUpload | DailyUploads | DownloadGG | GoFile | KrakenFiles | MdiaLoad | MultiUp
  • BdUpload
  • DownAce
  • Fichier
  • FileCloud
  • Filerio
  • FilesCdn
  • IndiShare
  • Kbagi
  • Turbobit
  • UpToBox
  • Uppit
| Uppit
HashesCRC32: 9990B8C2, MD5: 3E53320F8EDEA7B0285982B68CA5FFB9, SHA1: D10F03610DF5EE7299F26DADD9624AC87043996E, SHA256: B63F8AD09C1CC2F8F9D1102038C023197CB37C87BE2886ABD670478EC356A13C, ED2K: 4B834282177D64F16B171107BBFE6EE2
Screenshots
screenshotscreenshot
SubtitlesAll Attachments | eng [PGS]
Additional Info
General
Unique ID                                : 316807792553855522841539881754049827894 (0xEE56F6203DDEBB3299A46773039ED436)
Complete name                            : [DBD-Raws][真救世主传说 北斗神拳 健次郎传][PV][02][1080P][BDRip][HEVC-10bit][FLAC].mkv
Format                                   : Matroska
Format version                           : Version 4
File size                                : 172 MiB
Duration                                 : 1 min 44 s
Overall bit rate mode                    : Variable
Overall bit rate                         : 13.8 Mb/s
Frame rate                               : 23.976 FPS
Encoded date                             : 2024-04-02 13:28:20 UTC
Writing application                      : mkvmerge v55.0.0 ('Waiting For Space') 64-bit
Writing library                          : libebml v1.4.2 + libmatroska v1.6.4

Video
ID                                       : 1
Format                                   : HEVC
Format/Info                              : High Efficiency Video Coding
Format profile                           : Main 10@L5.1@High
Codec ID                                 : V_MPEGH/ISO/HEVC
Duration                                 : 1 min 44 s
Bit rate                                 : 12.4 Mb/s
Width                                    : 1 920 pixels
Height                                   : 1 080 pixels
Display aspect ratio                     : 16:9
Frame rate mode                          : Constant
Frame rate                               : 23.976 (24000/1001) FPS
Color space                              : YUV
Chroma subsampling                       : 4:2:0
Bit depth                                : 10 bits
Bits/(Pixel*Frame)                       : 0.250
Stream size                              : 154 MiB (90%)
Default                                  : Yes
Forced                                   : No

Audio
ID                                       : 2
Format                                   : FLAC
Format/Info                              : Free Lossless Audio Codec
Codec ID                                 : A_FLAC
Duration                                 : 1 min 44 s
Bit rate mode                            : Variable
Bit rate                                 : 1 360 kb/s
Channel(s)                               : 2 channels
Channel layout                           : L R
Sampling rate                            : 48.0 kHz
Frame rate                               : 10.422 FPS (4606 SPF)
Bit depth                                : 24 bits
Compression mode                         : Lossless
Stream size                              : 16.9 MiB (10%)
Writing library                          : ShanaEncoder
Language                                 : Japanese
Default                                  : Yes
Forced                                   : No
MD5 of the unencoded content             : 7C415F0A1FF8B5223AB4CD737634E72A

Text
ID                                       : 3
Format                                   : PGS
Muxing mode                              : zlib
Codec ID                                 : S_HDMV/PGS
Codec ID/Info                            : Picture based subtitle format used on BDs/HD-DVDs
Duration                                 : 1 min 40 s
Bit rate                                 : 103 kb/s
Frame rate                               : 0.407 FPS
Count of elements                        : 41
Stream size                              : 1.24 MiB (1%)
Language                                 : English
Default                                  : Yes
Forced                                   : No

Other Files in this Torrent
PV/[DBD-Raws][真救世主传说 北斗神拳 健次郎传][PV][02][1080P][BDRip][HEVC-10bit][FLAC].mkv
beta
Anime DDL+NZB mirror
Current Time: 24/05/2024 21:58



About/FAQs

Discord