File Size30.33 MB (31,803,175 bytes)
DownloadClickNUpload | DailyUploads | DownloadGG | GoFile | KrakenFiles | MdiaLoad | MultiUp
  • BdUpload
  • DownAce
  • Fichier
  • FileCloud
  • Filerio
  • FilesCdn
  • IndiShare
  • Kbagi
  • Turbobit
  • UpToBox
  • Uppit
| Uppit
HashesCRC32: 46A537F5, MD5: A37BE033037617585F60857A8CEE5B3F, SHA1: 6B25C9B6F7793E64242F0D5A5D1DD8DEEA9ADF3B, SHA256: 78D110A611ADF084B1932880D39F5C38C3BD5EB01BDE9F576DA29C20536D8943, ED2K: 0DE49C21F408DE777F5F17319AA38E9F
Screenshots
screenshotscreenshot
Additional Info
General
Unique ID                                : 163090376989909865910888808410555794284 (0x7AB21066CD31DA49DE3E168F85A6C36C)
Complete name                            : [DBD-Raws][真救世主传说 北斗神拳 健次郎传][特典映像][1080P][BDRip][HEVC-10bit][AC3].mkv
Format                                   : Matroska
Format version                           : Version 4
File size                                : 30.3 MiB
Duration                                 : 1 min 33 s
Overall bit rate                         : 2 728 kb/s
Frame rate                               : 23.976 FPS
Encoded date                             : 2024-04-02 13:29:12 UTC
Writing application                      : mkvmerge v55.0.0 ('Waiting For Space') 64-bit
Writing library                          : libebml v1.4.2 + libmatroska v1.6.4

Video
ID                                       : 1
Format                                   : HEVC
Format/Info                              : High Efficiency Video Coding
Format profile                           : Main 10@L5.1@High
Codec ID                                 : V_MPEGH/ISO/HEVC
Duration                                 : 1 min 33 s
Bit rate                                 : 2 470 kb/s
Width                                    : 1 920 pixels
Height                                   : 1 080 pixels
Display aspect ratio                     : 16:9
Frame rate mode                          : Constant
Frame rate                               : 23.976 (24000/1001) FPS
Color space                              : YUV
Chroma subsampling                       : 4:2:0
Bit depth                                : 10 bits
Bits/(Pixel*Frame)                       : 0.050
Stream size                              : 27.5 MiB (91%)
Default                                  : Yes
Forced                                   : No

Audio
ID                                       : 2
Format                                   : AC-3
Format/Info                              : Audio Coding 3
Commercial name                          : Dolby Digital
Codec ID                                 : A_AC3
Duration                                 : 1 min 33 s
Bit rate mode                            : Constant
Bit rate                                 : 256 kb/s
Channel(s)                               : 2 channels
Channel layout                           : L R
Sampling rate                            : 48.0 kHz
Frame rate                               : 31.250 FPS (1536 SPF)
Compression mode                         : Lossy
Stream size                              : 2.85 MiB (9%)
Language                                 : English
Service kind                             : Complete Main
Default                                  : Yes
Forced                                   : No

Other Files in this Torrent
特典映像/[DBD-Raws][真救世主传说 北斗神拳 健次郎传][特典映像][1080P][BDRip][HEVC-10bit][AC3].mkv
beta
Anime DDL+NZB mirror
Current Time: 24/05/2024 22:09



About/FAQs

Discord