(Project_Angel)_No_Game_No_Life_-_SP04_(BD_1080p)_(SallySubs).mkv


File Size20.59 MB (21,589,901 bytes)
DownloadAnonFiles | ClickNUpload | DownloadGG | DropAPK | MultiUp
  • BdUpload
  • DownAce
  • Fichier
  • FileCloud
  • Filerio
  • FilesCdn
  • IndiShare
  • Kbagi
  • Turbobit
  • UpToBox
  • Uppit
| SolidFiles | ZippyShare
HashesCRC32: E0654E60, MD5: AD87B4C6075B48AFFF4D84A53751090B, SHA1: 215092F7EEB978E7B8DDD535DF5B397FA8B6141C, SHA256: D22D988876A7BBFCBB263ACB605A269745F1E6F3CCA4A71FF1A55E3970D69FE8, ED2K: D856E71E427778B00832417DD829D338
Screenshots
screenshotscreenshotscreenshot
SubtitlesAll Attachments | Undetermined [und, ASS]
Additional Info
General
Unique ID                                : 185347425299290929424613358602532907174 (0x8B709D9B3B520283D6368A55F22768A6)
Complete name                            : (Project_Angel)_No_Game_No_Life_-_SP04_(BD_1080p)_(SallySubs).mkv
Format                                   : Matroska
Format version                           : Version 4
File size                                : 20.6 MiB
Duration                                 : 2 min 19 s
Overall bit rate                         : 1 241 kb/s
Encoded by                               : IFME v21.09.30-alpha_wip-pre_v8 windows amd64 znver2 @ Grus Nivis Chapter
Encoded date                             : UTC 2021-10-27 08:21:03
Writing application                      : mkvmerge v61.0.0 ('So') 64-bit
Writing library                          : libebml v1.4.2 + libmatroska v1.6.4 / Lavf59.2.101
Attachments                              : A-OTF Folk Pro.ttf / 44v2.ttf / aesymatt.ttf / Aladin-Regular.ttf / AmericanText.ttf / AppleGaramond-Bold.TTF / arial.ttf / arialbd.ttf / CANDARAB.TTF / GosmickSansBold.ttf / IwaOMinPro-Hv-Fate.ttf / Roboto-Medium.ttf / Roboto-MediumItalic.ttf / SourceSansPro-Black.otf / SourceSansPro-Light.otf / SourceSansPro-Light_0.otf / SourceSansPro-Regular.otf / SourceSansPro-Regular.ttf / SourceSansPro-Semibold.ttf / SourceSansPro-SemiboldIt.otf / SourceSansPro-SemiboldItalic.ttf / TektonPro-Bold.otf / YELLOW.TTF / zektonbo.ttf

Video
ID                                       : 1
Format                                   : HEVC
Format/Info                              : High Efficiency Video Coding
Format profile                           : Main 10@L4@Main
Codec ID                                 : V_MPEGH/ISO/HEVC
Duration                                 : 2 min 17 s
Bit rate                                 : 877 kb/s
Width                                    : 1 920 pixels
Height                                   : 1 080 pixels
Display aspect ratio                     : 16:9
Frame rate mode                          : Variable
Frame rate                               : 23.976 (23976/1000) FPS
Color space                              : YUV
Chroma subsampling                       : 4:2:0
Bit depth                                : 10 bits
Bits/(Pixel*Frame)                       : 0.018
Stream size                              : 14.4 MiB (70%)
Title                                    : English
Writing library                          : x265 3.5+1-ce882936d:[Windows][GCC 10.2.0][64 bit] 10bit
Encoding settings                        : cpuid=1111039 / frame-threads=3 / numa-pools=12 / wpp / no-pmode / no-pme / no-psnr / no-ssim / log-level=2 / input-csp=1 / input-res=1920x1080 / interlace=0 / total-frames=3336 / level-idc=0 / high-tier=1 / uhd-bd=0 / ref=4 / no-allow-non-conformance / no-repeat-headers / annexb / no-aud / no-hrd / info / hash=0 / no-temporal-layers / open-gop / min-keyint=23 / keyint=250 / gop-lookahead=0 / bframes=4 / b-adapt=2 / b-pyramid / bframe-bias=0 / rc-lookahead=25 / lookahead-slices=4 / scenecut=40 / hist-scenecut=0 / radl=0 / no-splice / no-intra-refresh / ctu=64 / min-cu-size=8 / rect / no-amp / max-tu-size=32 / tu-inter-depth=1 / tu-intra-depth=1 / limit-tu=0 / rdoq-level=2 / dynamic-rd=0.00 / no-ssim-rd / signhide / no-tskip / nr-intra=0 / nr-inter=0 / no-constrained-intra / strong-intra-smoothing / max-merge=3 / limit-refs=3 / limit-modes / me=3 / subme=3 / merange=57 / temporal-mvp / no-frame-dup / no-hme / weightp / no-weightb / no-analyze-src-pics / deblock=0:0 / sao / no-sao-non-deblock / rd=4 / selective-sao=4 / no-early-skip / rskip / no-fast-intra / no-tskip-fast / no-cu-lossless / no-b-intra / no-splitrd-skip / rdpenalty=0 / psy-rd=0.00 / psy-rdoq=0.00 / no-rd-refine / no-lossless / cbqpoffs=0 / crqpoffs=0 / rc=crf / crf=20.0 / qcomp=0.60 / qpstep=4 / stats-write=0 / stats-read=0 / ipratio=1.40 / pbratio=1.30 / aq-mode=2 / aq-strength=1.00 / cutree / zone-count=0 / no-strict-cbr / qg-size=32 / no-rc-grain / qpmax=69 / qpmin=0 / no-const-vbv / sar=1 / overscan=0 / videoformat=5 / range=0 / colorprim=2 / transfer=2 / colormatrix=2 / chromaloc=0 / display-window=0 / cll=0,0 / min-luma=0 / max-luma=1023 / log2-max-poc-lsb=8 / vui-timing-info / vui-hrd-info / slices=1 / no-opt-qp-pps / no-opt-ref-list-length-pps / no-multi-pass-opt-rps / scenecut-bias=0.05 / hist-threshold=0.03 / no-opt-cu-delta-qp / no-aq-motion / no-hdr10 / no-hdr10-opt / no-dhdr10-opt / no-idr-recovery-sei / analysis-reuse-level=0 / analysis-save-reuse-level=0 / analysis-load-reuse-level=0 / scale-factor=0 / refine-intra=0 / refine-inter=0 / refine-mv=1 / refine-ctu-distortion=0 / no-limit-sao / ctu-info=0 / no-lowpass-dct / refine-analysis-type=0 / copy-pic=1 / max-ausize-factor=1.0 / no-dynamic-refine / no-single-sei / no-hevc-aq / no-svt / no-field / qp-adaptation-range=1.00 / scenecut-aware-qp=0conformance-window-offsets / right=0 / bottom=0 / decoder-max-rate=0 / no-vbv-live-multi-pass
Language                                 : English
Default                                  : Yes
Forced                                   : No
Color range                              : Limited
VENDOR_ID                                : [0][0][0][0]

Audio
ID                                       : 2
Format                                   : Opus
Codec ID                                 : A_OPUS
Duration                                 : 2 min 19 s
Bit rate                                 : 122 kb/s
Channel(s)                               : 2 channels
Channel layout                           : L R
Sampling rate                            : 48.0 kHz
Frame rate                               : 16.667 FPS (2880 SPF)
Bit depth                                : 32 bits
Compression mode                         : Lossy
Stream size                              : 2.02 MiB (10%)
Title                                    : Undetermined
Writing library                          : Lavc59.1.100 libopus
Default                                  : Yes
Forced                                   : No

Text
ID                                       : 3
Format                                   : ASS
Codec ID                                 : S_TEXT/ASS
Codec ID/Info                            : Advanced Sub Station Alpha
Duration                                 : 2 min 2 s
Bit rate                                 : 245 b/s
Count of elements                        : 58
Compression mode                         : Lossless
Stream size                              : 3.67 KiB (0%)
Title                                    : Undetermined
Default                                  : Yes
Forced                                   : No

Other Files in this Torrent
(Project_Angel)_No_Game_No_Life_-_SP04_(BD_1080p)_(SallySubs).mkv
beta
Anime DDL+NZB mirror
Current Time: 20/06/2024 09:40



About/FAQs

Discord