(Project_Angel)_No_Game_No_Life_-_08_(BD_1080p)_(Coalgirls).mkv


File Size184.6 MB (193,550,845 bytes)
DownloadAnonFiles | ClickNUpload | DownloadGG | DropAPK | MultiUp
  • BdUpload
  • DownAce
  • Fichier
  • FileCloud
  • Filerio
  • FilesCdn
  • IndiShare
  • Kbagi
  • Turbobit
  • UpToBox
  • Uppit
| SolidFiles | ZippyShare
HashesCRC32: D0D9E52F, MD5: 495F4344D1E2D19B40E130A731FF73B4, SHA1: 2BD2828B186B73836038836BA402BB9CFFE979C4, SHA256: C2DB8AA5F4D0422C1B53793182E51545BCA28E6AD6B9369DE1B3CCD15C755A84, ED2K: 53111B4B71CB11942658E25BEB8FBD2D
Screenshots
screenshotscreenshotscreenshotscreenshotscreenshot
SubtitlesAll Attachments | English [eng, ASS]
Additional Info
General
Unique ID                                : 252104583473364268870473875814776973489 (0xBDA9939EDDDB5A6E52F20FEC38C628B1)
Complete name                            : (Project_Angel)_No_Game_No_Life_-_08_(BD_1080p)_(Coalgirls).mkv
Format                                   : Matroska
Format version                           : Version 4
File size                                : 185 MiB
Duration                                 : 24 min 2 s
Overall bit rate                         : 1 074 kb/s
Encoded by                               : IFME v21.09.30-alpha_wip-pre_v8 windows amd64 znver2 @ Grus Nivis Chapter
Encoded date                             : UTC 2021-10-27 07:34:51
Writing application                      : mkvmerge v61.0.0 ('So') 64-bit
Writing library                          : libebml v1.4.2 + libmatroska v1.6.4 / Lavf59.2.101
Attachments                              : Square721 Dm-Normal.ttf / Accolade-Serial-Regular DB.ttf / BADABB.TTF / CASUALMARKERMF.TTF / Chunk-a-Chip.ttf / DroidSans.ttf / GenBkBasR.ttf / KGEmpireofDirt.ttf / MankSans-Medium.ttf / Mesouran_Serif_Black_SSi_Bold.ttf / OLDSH__.TTF / Roboto-Medium.ttf / Roboto-MediumItalic.ttf / RussoOne-Regular.ttf / SPLAT.TTF / UKIJMoyQ.ttf / warehous.ttf

Video
ID                                       : 1
Format                                   : HEVC
Format/Info                              : High Efficiency Video Coding
Format profile                           : Main 10@L4@Main
Codec ID                                 : V_MPEGH/ISO/HEVC
Duration                                 : 24 min 1 s
Bit rate                                 : 915 kb/s
Width                                    : 1 920 pixels
Height                                   : 1 080 pixels
Display aspect ratio                     : 16:9
Frame rate mode                          : Variable
Frame rate                               : 23.976 FPS
Color space                              : YUV
Chroma subsampling                       : 4:2:0
Bit depth                                : 10 bits
Bits/(Pixel*Frame)                       : 0.018
Stream size                              : 157 MiB (85%)
Title                                    : Japanese
Writing library                          : x265 3.5+1-ce882936d:[Windows][GCC 10.2.0][64 bit] 10bit
Encoding settings                        : cpuid=1111039 / frame-threads=3 / numa-pools=12 / wpp / no-pmode / no-pme / no-psnr / no-ssim / log-level=2 / input-csp=1 / input-res=1920x1080 / interlace=0 / total-frames=34577 / level-idc=0 / high-tier=1 / uhd-bd=0 / ref=3 / no-allow-non-conformance / no-repeat-headers / annexb / no-aud / no-hrd / info / hash=0 / no-temporal-layers / open-gop / min-keyint=23 / keyint=250 / gop-lookahead=0 / bframes=4 / b-adapt=2 / b-pyramid / bframe-bias=0 / rc-lookahead=20 / lookahead-slices=6 / scenecut=40 / hist-scenecut=0 / radl=0 / no-splice / no-intra-refresh / ctu=64 / min-cu-size=8 / no-rect / no-amp / max-tu-size=32 / tu-inter-depth=1 / tu-intra-depth=1 / limit-tu=0 / rdoq-level=0 / dynamic-rd=0.00 / no-ssim-rd / signhide / no-tskip / nr-intra=0 / nr-inter=0 / no-constrained-intra / strong-intra-smoothing / max-merge=3 / limit-refs=1 / no-limit-modes / me=1 / subme=2 / merange=57 / temporal-mvp / no-frame-dup / no-hme / weightp / no-weightb / no-analyze-src-pics / deblock=0:0 / sao / no-sao-non-deblock / rd=3 / selective-sao=4 / early-skip / rskip / no-fast-intra / no-tskip-fast / no-cu-lossless / b-intra / no-splitrd-skip / rdpenalty=0 / psy-rd=0.00 / psy-rdoq=0.00 / no-rd-refine / no-lossless / cbqpoffs=0 / crqpoffs=0 / rc=crf / crf=23.0 / qcomp=0.60 / qpstep=4 / stats-write=0 / stats-read=0 / ipratio=1.40 / pbratio=1.30 / aq-mode=2 / aq-strength=1.00 / cutree / zone-count=0 / no-strict-cbr / qg-size=32 / no-rc-grain / qpmax=69 / qpmin=0 / no-const-vbv / sar=1 / overscan=0 / videoformat=5 / range=0 / colorprim=2 / transfer=2 / colormatrix=2 / chromaloc=0 / display-window=0 / cll=0,0 / min-luma=0 / max-luma=1023 / log2-max-poc-lsb=8 / vui-timing-info / vui-hrd-info / slices=1 / no-opt-qp-pps / no-opt-ref-list-length-pps / no-multi-pass-opt-rps / scenecut-bias=0.05 / hist-threshold=0.03 / no-opt-cu-delta-qp / no-aq-motion / no-hdr10 / no-hdr10-opt / no-dhdr10-opt / no-idr-recovery-sei / analysis-reuse-level=0 / analysis-save-reuse-level=0 / analysis-load-reuse-level=0 / scale-factor=0 / refine-intra=0 / refine-inter=0 / refine-mv=1 / refine-ctu-distortion=0 / no-limit-sao / ctu-info=0 / no-lowpass-dct / refine-analysis-type=0 / copy-pic=1 / max-ausize-factor=1.0 / no-dynamic-refine / no-single-sei / no-hevc-aq / no-svt / no-field / qp-adaptation-range=1.00 / scenecut-aware-qp=0conformance-window-offsets / right=0 / bottom=0 / decoder-max-rate=0 / no-vbv-live-multi-pass
Language                                 : Japanese
Default                                  : Yes
Forced                                   : No
Color range                              : Limited
VENDOR_ID                                : [0][0][0][0]

Audio
ID                                       : 2
Format                                   : Opus
Codec ID                                 : A_OPUS
Duration                                 : 24 min 2 s
Bit rate                                 : 129 kb/s
Channel(s)                               : 2 channels
Channel layout                           : L R
Sampling rate                            : 48.0 kHz
Frame rate                               : 16.667 FPS (2880 SPF)
Bit depth                                : 32 bits
Compression mode                         : Lossy
Stream size                              : 22.2 MiB (12%)
Title                                    : Japanese
Writing library                          : Lavc59.1.100 libopus
Language                                 : Japanese
Default                                  : Yes
Forced                                   : No

Text
ID                                       : 3
Format                                   : ASS
Codec ID                                 : S_TEXT/ASS
Codec ID/Info                            : Advanced Sub Station Alpha
Duration                                 : 23 min 49 s
Bit rate                                 : 17.4 kb/s
Count of elements                        : 16969
Compression mode                         : Lossless
Stream size                              : 2.97 MiB (2%)
Title                                    : English
Language                                 : English
Default                                  : Yes
Forced                                   : No

Menu
00:00:00.000                             : :Intro
00:01:35.053                             : :Opening
00:03:04.976                             : :Episode
00:21:18.026                             : :Ending
00:22:47.491                             : :Outtro
00:23:48.009                             : :Preview

Other Files in this Torrent
(Project_Angel)_No_Game_No_Life_-_08_(BD_1080p)_(Coalgirls).mkv
beta
Anime DDL+NZB mirror
Current Time: 14/06/2024 05:36



About/FAQs

Discord