[OZR] Monogatari Series Second Season - 23 (BD 1080p HEVC FLAC) [A6B2D119].mkv


File Size1.724 GB (1,851,399,421 bytes)
DownloadClickNUpload
DownloadGG: Part1, Part2
KrakenFiles: Part1, Part2
MultiUp: Part1
  • BdUpload
  • DownAce
  • Fichier
  • FileCloud
  • Filerio
  • FilesCdn
  • IndiShare
  • Kbagi
  • Turbobit
  • UpToBox
  • Uppit
, Part2
  • BdUpload
  • DownAce
  • Fichier
  • FileCloud
  • Filerio
  • FilesCdn
  • IndiShare
  • Kbagi
  • Turbobit
  • UpToBox
  • Uppit
, Part3
  • BdUpload
  • DownAce
  • Fichier
  • FileCloud
  • Filerio
  • FilesCdn
  • IndiShare
  • Kbagi
  • Turbobit
  • UpToBox
  • Uppit
, Part4
  • BdUpload
  • DownAce
  • Fichier
  • FileCloud
  • Filerio
  • FilesCdn
  • IndiShare
  • Kbagi
  • Turbobit
  • UpToBox
  • Uppit

ZippyShare: Part1, Part2, Part3, Part4
HashesCRC32: A6B2D119, MD5: 4B04A51A312D9F6F2415D522D23D51E8, SHA1: 8F48DD090897760DBBE9D258C45C1B1C99705E72, SHA256: 7551CFB98D4A316DCAF874EC22FE2E55F29571408EC84A5BB7A57E8C03991B39, ED2K: E73AC47BA35C69D92E4F272661101406
Screenshots
screenshotscreenshotscreenshotscreenshotscreenshot
SubtitlesAll Attachments | Full Subtitles [MTBB] [eng, ASS], Honorifics [MTBB] [enm, ASS], Commentary [XIG Fansubs] [eng, ASS]
Additional Info
General
Unique ID                                : 112316171802944813258269344630190793297 (0x547F4ECF59D2FC41975433D791966251)
Complete name                            : [OZR] Monogatari Series Second Season - 23 (BD 1080p HEVC FLAC) [A6B2D119].mkv
Format                                   : Matroska
Format version                           : Version 4
File size                                : 1.72 GiB
Duration                                 : 26 min 26 s
Overall bit rate mode                    : Variable
Overall bit rate                         : 9 338 kb/s
Movie name                               : [OZR] Monogatari Series Second Season - 23 (BD 1080p HEVC FLAC)
Writing application                      : mkvmerge v66.0.0 ('Josie') 64-bit
Writing library                          : libebml v1.4.2 + libmatroska v1.6.4
Attachments                              : arial.ttf / FiraSans-Bold.ttf / Magra-Bold.ttf / CenturyOldStyle-Light Bold.ttf / IwaMinPro-Lt-Madoka.ttf / IwaOMinPro-Bd-Fate.ttf / IWATAMINCHOPROM-STR.TTF / LHF_Scriptana.ttf / Montara-Gothic.otf / Montara-Italic.otf / Reswysokr.otf

Video
ID                                       : 1
Format                                   : HEVC
Format/Info                              : High Efficiency Video Coding
Format profile                           : Main 10@L4@Main
Codec ID                                 : V_MPEGH/ISO/HEVC
Duration                                 : 26 min 26 s
Bit rate                                 : 8 142 kb/s
Width                                    : 1 920 pixels
Height                                   : 1 080 pixels
Display aspect ratio                     : 16:9
Frame rate mode                          : Constant
Frame rate                               : 23.976 (24000/1001) FPS
Color space                              : YUV
Chroma subsampling                       : 4:2:0
Bit depth                                : 10 bits
Bits/(Pixel*Frame)                       : 0.164
Stream size                              : 1.50 GiB (87%)
Title                                    : Kawaiika-Raws
Writing library                          : x265 3.1.1:[Linux][GCC 9.1.0][64 bit] 10bit
Encoding settings                        : cpuid=1049583 / frame-threads=2 / wpp / no-pmode / no-pme / no-psnr / no-ssim / log-level=2 / input-csp=1 / input-res=1920x1080 / interlace=0 / total-frames=38028 / level-idc=0 / high-tier=1 / uhd-bd=0 / ref=4 / no-allow-non-conformance / no-repeat-headers / annexb / no-aud / no-hrd / info / hash=0 / no-temporal-layers / open-gop / min-keyint=23 / keyint=250 / gop-lookahead=8 / bframes=16 / b-adapt=2 / b-pyramid / bframe-bias=0 / rc-lookahead=250 / lookahead-slices=1 / scenecut=40 / radl=0 / no-splice / no-intra-refresh / ctu=64 / min-cu-size=8 / no-rect / no-amp / max-tu-size=32 / tu-inter-depth=2 / tu-intra-depth=2 / limit-tu=0 / rdoq-level=2 / dynamic-rd=0.00 / no-ssim-rd / signhide / no-tskip / nr-intra=0 / nr-inter=0 / no-constrained-intra / strong-intra-smoothing / max-merge=5 / limit-refs=3 / no-limit-modes / me=3 / subme=7 / merange=48 / temporal-mvp / weightp / weightb / no-analyze-src-pics / deblock=1:-1 / no-sao / no-sao-non-deblock / rd=4 / no-early-skip / no-rskip / no-fast-intra / no-tskip-fast / no-cu-lossless / no-b-intra / no-splitrd-skip / rdpenalty=0 / psy-rd=2.00 / psy-rdoq=2.00 / no-rd-refine / no-lossless / cbqpoffs=-2 / crqpoffs=-2 / rc=crf / crf=14.8 / qcomp=0.72 / qpstep=4 / stats-write=0 / stats-read=0 / ipratio=1.40 / pbratio=1.30 / aq-mode=3 / aq-strength=0.85 / no-cutree / zone-count=29 / zones: / start-frame=1121 / end-frame=1179 / bitrate-factor=0.980000 / zones: / start-frame=1202 / end-frame=1272 / bitrate-factor=0.960000 / zones: / start-frame=1365 / end-frame=1885 / bitrate-factor=0.980000 / zones: / start-frame=4315 / end-frame=4593 / bitrate-factor=0.980000 / zones: / start-frame=4719 / end-frame=5044 / bitrate-factor=0.900000 / zones: / start-frame=5093 / end-frame=5402 / bitrate-factor=0.960000 / zones: / start-frame=5481 / end-frame=5813 / bitrate-factor=0.900000 / zones: / start-frame=5966 / end-frame=6300 / bitrate-factor=0.900000 / zones: / start-frame=6415 / end-frame=6636 / bitrate-factor=0.980000 / zones: / start-frame=6733 / end-frame=6897 / bitrate-factor=0.980000 / zones: / start-frame=6928 / end-frame=6951 / bitrate-factor=0.980000 / zones: / start-frame=6952 / end-frame=7383 / bitrate-factor=0.900000 / zones: / start-frame=7498 / end-frame=7592 / bitrate-factor=0.980000 / zones: / start-frame=7617 / end-frame=7928 / bitrate-factor=0.900000 / zones: / start-frame=7953 / end-frame=8495 / bitrate-factor=0.900000 / zones: / start-frame=8787 / end-frame=8985 / bitrate-factor=0.900000 / zones: / start-frame=9108 / end-frame=9409 / bitrate-factor=0.980000 / zones: / start-frame=9410 / end-frame=9610 / bitrate-factor=0.900000 / zones: / start-frame=9728 / end-frame=9829 / bitrate-factor=0.900000 / zones: / start-frame=9997 / end-frame=10077 / bitrate-factor=0.960000 / zones: / start-frame=10120 / end-frame=10179 / bitrate-factor=0.900000 / zones: / start-frame=10204 / end-frame=10575 / bitrate-factor=0.900000 / zones: / start-frame=10642 / end-frame=10817 / bitrate-factor=0.900000 / zones: / start-frame=10882 / end-frame=10902 / bitrate-factor=0.980000 / zones: / start-frame=11275 / end-frame=11328 / bitrate-factor=0.980000 / zones: / start-frame=11329 / end-frame=11361 / bitrate-factor=0.900000 / zones: / start-frame=11389 / end-frame=11676 / bitrate-factor=0.900000 / zones: / start-frame=11677 / end-frame=11748 / bitrate-factor=0.980000 / zones: / start-frame=11971 / end-frame=12113 / bitrate-factor=0.980000 / no-strict-cbr / qg-size=32 / no-rc-grain / qpmax=69 / qpmin=0 / no-const-vbv / sar=1 / overscan=0 / videoformat=5 / range=0 / colorprim=1 / transfer=1 / colormatrix=1 / chromaloc=0 / display-window=0cll=0,0 / min-luma=0 / max-luma=1023 / log2-max-poc-lsb=8 / vui-timing-info / vui-hrd-info / slices=1 / no-opt-qp-pps / no-opt-ref-list-length-pps / no-multi-pass-opt-rps / scenecut-bias=0.05 / no-opt-cu-delta-qp / no-aq-motion / no-hdr / no-hdr-opt / no-dhdr10-opt / no-idr-recovery-sei / analysis-reuse-level=5 / scale-factor=0 / refine-intra=0 / refine-inter=0 / refine-mv=0 / refine-ctu-distortion=0 / no-limit-sao / ctu-info=0 / no-lowpass-dct / refine-analysis-type=0 / copy-pic=1 / max-ausize-factor=1.0 / no-dynamic-refine / no-single-sei / no-hevc-aq / no-svt / no-field / qp-adaptation-range=1.00
Language                                 : Japanese
Default                                  : Yes
Forced                                   : No
Color range                              : Limited
Color primaries                          : BT.709
Transfer characteristics                 : BT.709
Matrix coefficients                      : BT.709

Audio #1
ID                                       : 2
Format                                   : FLAC
Format/Info                              : Free Lossless Audio Codec
Codec ID                                 : A_FLAC
Duration                                 : 26 min 26 s
Bit rate mode                            : Variable
Bit rate                                 : 660 kb/s
Channel(s)                               : 2 channels
Channel layout                           : L R
Sampling rate                            : 48.0 kHz
Frame rate                               : 11.719 FPS (4096 SPF)
Bit depth                                : 16 bits
Compression mode                         : Lossless
Stream size                              : 125 MiB (7%)
Title                                    : Japanese 2.0 FLAC
Writing library                          : libFLAC 1.3.3 (UTC 2019-08-04)
Language                                 : Japanese
Default                                  : Yes
Forced                                   : No

Audio #2
ID                                       : 3
Format                                   : FLAC
Format/Info                              : Free Lossless Audio Codec
Codec ID                                 : A_FLAC
Duration                                 : 26 min 26 s
Bit rate mode                            : Variable
Bit rate                                 : 511 kb/s
Channel(s)                               : 2 channels
Channel layout                           : L R
Sampling rate                            : 48.0 kHz
Frame rate                               : 11.719 FPS (4096 SPF)
Bit depth                                : 16 bits
Compression mode                         : Lossless
Stream size                              : 96.6 MiB (5%)
Title                                    : Commentary 2.0 FLAC
Writing library                          : libFLAC 1.3.4 (UTC 2022-02-20)
Language                                 : Japanese
Default                                  : No
Forced                                   : No

Text #1
ID                                       : 4
Format                                   : ASS
Muxing mode                              : zlib
Codec ID                                 : S_TEXT/ASS
Codec ID/Info                            : Advanced Sub Station Alpha
Duration                                 : 26 min 23 s
Bit rate                                 : 1 748 b/s
Count of elements                        : 3204
Compression mode                         : Lossless
Stream size                              : 338 KiB (0%)
Title                                    : Full Subtitles [MTBB]
Language                                 : English
Default                                  : Yes
Forced                                   : No

Text #2
ID                                       : 5
Format                                   : ASS
Muxing mode                              : zlib
Codec ID                                 : S_TEXT/ASS
Codec ID/Info                            : Advanced Sub Station Alpha
Duration                                 : 26 min 23 s
Bit rate                                 : 1 674 b/s
Count of elements                        : 3204
Compression mode                         : Lossless
Stream size                              : 324 KiB (0%)
Title                                    : Honorifics [MTBB]
Language                                 : enm
Default                                  : No
Forced                                   : No

Text #3
ID                                       : 6
Format                                   : ASS
Muxing mode                              : zlib
Codec ID                                 : S_TEXT/ASS
Codec ID/Info                            : Advanced Sub Station Alpha
Duration                                 : 26 min 21 s
Bit rate                                 : 207 b/s
Count of elements                        : 559
Compression mode                         : Lossless
Stream size                              : 40.1 KiB (0%)
Title                                    : Commentary [XIG Fansubs]
Language                                 : English
Default                                  : No
Forced                                   : No

Menu
00:00:00.000                             : en:Chapter 36, Part A
00:01:20.998                             : en:OP
00:02:51.046                             : en:Title; Chapter 36, Part B
00:08:10.032                             : en:Chapter 37
00:17:02.480                             : en:Chapter 38
00:21:34.836                             : en:Chapter 39
00:25:40.039                             : en:Next

Other Files in this Torrent
[OZR] Monogatari Series Second Season - 23 (BD 1080p HEVC FLAC) [A6B2D119].mkv
beta
Anime DDL+NZB mirror
Current Time: 28/11/2022 12:24



About/FAQs

Discord