[OZR] Monogatari Series Second Season - 16 (BD 1080p HEVC FLAC) [6C0B0956].mkv


File Size1.414 GB (1,518,709,967 bytes)
DownloadClickNUpload
DownloadGG: Part1, Part2
KrakenFiles: Part1, Part2
MultiUp: Part1
  • BdUpload
  • DownAce
  • Fichier
  • FileCloud
  • Filerio
  • FilesCdn
  • IndiShare
  • Kbagi
  • Turbobit
  • UpToBox
  • Uppit
, Part2
  • BdUpload
  • DownAce
  • Fichier
  • FileCloud
  • Filerio
  • FilesCdn
  • IndiShare
  • Kbagi
  • Turbobit
  • UpToBox
  • Uppit
, Part3
  • BdUpload
  • DownAce
  • Fichier
  • FileCloud
  • Filerio
  • FilesCdn
  • IndiShare
  • Kbagi
  • Turbobit
  • UpToBox
  • Uppit

ZippyShare: Part1, Part2, Part3
HashesCRC32: 6C0B0956, MD5: D48FB4CD2F68BA9372270A2115279D89, SHA1: 5133001197AB82CA67A2FB57CF1CB49CB64459D4, SHA256: 834C840F71C2B5F8432DFC25984910F16D18CE96163E2FC458D5426DEA5645A7, ED2K: 305E05AD9DEA41B96F5898BA9F8BB4C0
Screenshots
screenshotscreenshotscreenshotscreenshotscreenshot
SubtitlesAll Attachments | Full Subtitles [MTBB] [eng, ASS], Honorifics [MTBB] [enm, ASS], Commentary [XIG Fansubs] [eng, ASS]
Additional Info
General
Unique ID                                : 105865728135833389789473760451728080977 (0x4FA4FF6210DAF5C0F65525D453358051)
Complete name                            : [OZR] Monogatari Series Second Season - 16 (BD 1080p HEVC FLAC) [6C0B0956].mkv
Format                                   : Matroska
Format version                           : Version 4
File size                                : 1.41 GiB
Duration                                 : 26 min 4 s
Overall bit rate mode                    : Variable
Overall bit rate                         : 7 765 kb/s
Movie name                               : [OZR] Monogatari Series Second Season - 16 (BD 1080p HEVC FLAC)
Writing application                      : mkvmerge v66.0.0 ('Josie') 64-bit
Writing library                          : libebml v1.4.2 + libmatroska v1.6.4
Attachments                              : Magra-Bold.ttf / AvenirLTStd-Heavy.otf / CenturyOldStyle-Light Bold.ttf / IwaMinPro-Lt-Madoka.ttf / IwaOMinPro-Bd-Fate.ttf / Montara-Gothic.otf / Montara-Italic.otf / NEWBASK.TTF

Video
ID                                       : 1
Format                                   : HEVC
Format/Info                              : High Efficiency Video Coding
Format profile                           : Main 10@L4@Main
Codec ID                                 : V_MPEGH/ISO/HEVC
Duration                                 : 26 min 4 s
Bit rate                                 : 6 516 kb/s
Width                                    : 1 920 pixels
Height                                   : 1 080 pixels
Display aspect ratio                     : 16:9
Frame rate mode                          : Constant
Frame rate                               : 23.976 (24000/1001) FPS
Color space                              : YUV
Chroma subsampling                       : 4:2:0
Bit depth                                : 10 bits
Bits/(Pixel*Frame)                       : 0.131
Stream size                              : 1.19 GiB (84%)
Title                                    : Kawaiika-Raws
Writing library                          : x265 3.1+7-147fb92c5ed5:[Linux][GCC 9.1.0][64 bit] 10bit
Encoding settings                        : cpuid=1049583 / frame-threads=2 / wpp / no-pmode / no-pme / no-psnr / no-ssim / log-level=2 / input-csp=1 / input-res=1920x1080 / interlace=0 / total-frames=37516 / level-idc=0 / high-tier=1 / uhd-bd=0 / ref=4 / no-allow-non-conformance / no-repeat-headers / annexb / no-aud / no-hrd / info / hash=0 / no-temporal-layers / open-gop / min-keyint=23 / keyint=260 / gop-lookahead=8 / bframes=10 / b-adapt=2 / b-pyramid / bframe-bias=0 / rc-lookahead=160 / lookahead-slices=1 / scenecut=35 / radl=0 / no-splice / no-intra-refresh / ctu=64 / min-cu-size=8 / no-rect / no-amp / max-tu-size=32 / tu-inter-depth=2 / tu-intra-depth=2 / limit-tu=0 / rdoq-level=2 / dynamic-rd=0.00 / no-ssim-rd / signhide / no-tskip / nr-intra=0 / nr-inter=0 / no-constrained-intra / strong-intra-smoothing / max-merge=5 / limit-refs=3 / no-limit-modes / me=3 / subme=7 / merange=48 / temporal-mvp / no-hme / weightp / weightb / no-analyze-src-pics / deblock=1:-1 / no-sao / no-sao-non-deblock / rd=4 / no-early-skip / no-rskip / no-fast-intra / no-tskip-fast / no-cu-lossless / no-b-intra / no-splitrd-skip / rdpenalty=0 / psy-rd=2.00 / psy-rdoq=2.00 / no-rd-refine / no-lossless / cbqpoffs=-2 / crqpoffs=-2 / rc=crf / crf=14.8 / qcomp=0.72 / qpstep=4 / stats-write=0 / stats-read=0 / ipratio=1.40 / pbratio=1.30 / aq-mode=3 / aq-strength=0.85 / no-cutree / zone-count=3 / zones: / start-frame=34049 / end-frame=36205 / bitrate-factor=0.980000 / zones: / start-frame=3741 / end-frame=4714 / bitrate-factor=0.700000 / zones: / start-frame=4715 / end-frame=5180 / bitrate-factor=0.950000 / no-strict-cbr / qg-size=32 / no-rc-grain / qpmax=69 / qpmin=0 / no-const-vbv / sar=1 / overscan=0 / videoformat=5 / range=0 / colorprim=1 / transfer=1 / colormatrix=1 / chromaloc=0 / display-window=0cll=0,0 / min-luma=0 / max-luma=1023 / log2-max-poc-lsb=8 / vui-timing-info / vui-hrd-info / slices=1 / no-opt-qp-pps / no-opt-ref-list-length-pps / no-multi-pass-opt-rps / scenecut-bias=0.05 / no-opt-cu-delta-qp / no-aq-motion / no-hdr / no-hdr-opt / no-dhdr10-opt / no-idr-recovery-sei / analysis-reuse-level=5 / scale-factor=0 / refine-intra=0 / refine-inter=0 / refine-mv=0 / refine-ctu-distortion=0 / no-limit-sao / ctu-info=0 / no-lowpass-dct / refine-analysis-type=0 / copy-pic=1 / max-ausize-factor=1.0 / no-dynamic-refine / no-single-sei / no-hevc-aq / no-svt / no-field / qp-adaptation-range=1.00
Language                                 : Japanese
Default                                  : Yes
Forced                                   : No
Color range                              : Limited
Color primaries                          : BT.709
Transfer characteristics                 : BT.709
Matrix coefficients                      : BT.709

Audio #1
ID                                       : 2
Format                                   : FLAC
Format/Info                              : Free Lossless Audio Codec
Codec ID                                 : A_FLAC
Duration                                 : 26 min 4 s
Bit rate mode                            : Variable
Bit rate                                 : 694 kb/s
Channel(s)                               : 2 channels
Channel layout                           : L R
Sampling rate                            : 48.0 kHz
Frame rate                               : 11.719 FPS (4096 SPF)
Bit depth                                : 16 bits
Compression mode                         : Lossless
Stream size                              : 130 MiB (9%)
Title                                    : Japanese 2.0 FLAC
Writing library                          : libFLAC 1.3.3 (UTC 2019-08-04)
Language                                 : Japanese
Default                                  : Yes
Forced                                   : No

Audio #2
ID                                       : 3
Format                                   : FLAC
Format/Info                              : Free Lossless Audio Codec
Codec ID                                 : A_FLAC
Duration                                 : 26 min 4 s
Bit rate mode                            : Variable
Bit rate                                 : 535 kb/s
Channel(s)                               : 2 channels
Channel layout                           : L R
Sampling rate                            : 48.0 kHz
Frame rate                               : 11.719 FPS (4096 SPF)
Bit depth                                : 16 bits
Compression mode                         : Lossless
Stream size                              : 99.8 MiB (7%)
Title                                    : Commentary 2.0 FLAC
Writing library                          : libFLAC 1.3.4 (UTC 2022-02-20)
Language                                 : Japanese
Default                                  : No
Forced                                   : No

Text #1
ID                                       : 4
Format                                   : ASS
Muxing mode                              : zlib
Codec ID                                 : S_TEXT/ASS
Codec ID/Info                            : Advanced Sub Station Alpha
Duration                                 : 26 min 2 s
Bit rate                                 : 3 257 b/s
Count of elements                        : 5764
Compression mode                         : Lossless
Stream size                              : 621 KiB (0%)
Title                                    : Full Subtitles [MTBB]
Language                                 : English
Default                                  : Yes
Forced                                   : No

Text #2
ID                                       : 5
Format                                   : ASS
Muxing mode                              : zlib
Codec ID                                 : S_TEXT/ASS
Codec ID/Info                            : Advanced Sub Station Alpha
Duration                                 : 26 min 2 s
Bit rate                                 : 3 093 b/s
Count of elements                        : 5764
Compression mode                         : Lossless
Stream size                              : 590 KiB (0%)
Title                                    : Honorifics [MTBB]
Language                                 : enm
Default                                  : No
Forced                                   : No

Text #3
ID                                       : 6
Format                                   : ASS
Muxing mode                              : zlib
Codec ID                                 : S_TEXT/ASS
Codec ID/Info                            : Advanced Sub Station Alpha
Duration                                 : 25 min 59 s
Bit rate                                 : 183 b/s
Count of elements                        : 489
Compression mode                         : Lossless
Stream size                              : 34.9 KiB (0%)
Title                                    : Commentary [XIG Fansubs]
Language                                 : English
Default                                  : No
Forced                                   : No

Menu
00:00:00.000                             : en:Chapter 22, Part A
00:02:36.030                             : en:OP
00:03:36.090                             : en:Title; Chapter 22, Part B
00:05:48.931                             : en:Chapter 23
00:10:15.448                             : en:Chapter 24
00:11:07.083                             : en:Chapter 25
00:16:35.077                             : en:Chapter 26
00:19:58.697                             : en:Chapter 27
00:23:40.127                             : en:ED
00:25:10.091                             : en:Next

Other Files in this Torrent
[OZR] Monogatari Series Second Season - 16 (BD 1080p HEVC FLAC) [6C0B0956].mkv
beta
Anime DDL+NZB mirror
Current Time: 03/10/2022 09:09



About/FAQs

Discord