[OZR] Monogatari Series Second Season - 09 (BD 1080p HEVC FLAC) [F4226537].mkv


File Size1.356 GB (1,456,323,110 bytes)
DownloadClickNUpload
DownloadGG: Part1, Part2
KrakenFiles: Part1, Part2
MultiUp: Part1
  • BdUpload
  • DownAce
  • Fichier
  • FileCloud
  • Filerio
  • FilesCdn
  • IndiShare
  • Kbagi
  • Turbobit
  • UpToBox
  • Uppit
, Part2
  • BdUpload
  • DownAce
  • Fichier
  • FileCloud
  • Filerio
  • FilesCdn
  • IndiShare
  • Kbagi
  • Turbobit
  • UpToBox
  • Uppit
, Part3
  • BdUpload
  • DownAce
  • Fichier
  • FileCloud
  • Filerio
  • FilesCdn
  • IndiShare
  • Kbagi
  • Turbobit
  • UpToBox
  • Uppit

ZippyShare: Part1, Part2, Part3
HashesCRC32: F4226537, MD5: 048DD6F5D74FB401FD4AECF66CBEC515, SHA1: 84CA36B2A09A11A84E4639CB31FC093D906AE36B, SHA256: 1CE5EBCCDE2BD96ABFD8305F55E4DDDA153DAA6BB70BC0BC23825641F3C2298D, ED2K: A750EEEB1C74F6E144C06959EC80C937
Screenshots
screenshotscreenshotscreenshotscreenshotscreenshot
SubtitlesAll Attachments | Full Subtitles [MTBB] [eng, ASS], Honorifics [MTBB] [enm, ASS], Commentary [XIG Fansubs] [eng, ASS]
Additional Info
General
Unique ID                                : 204142489819058239102437428143102725819 (0x999469D500F4CF5A4AA67B54979D8EBB)
Complete name                            : [OZR] Monogatari Series Second Season - 09 (BD 1080p HEVC FLAC) [F4226537].mkv
Format                                   : Matroska
Format version                           : Version 4
File size                                : 1.36 GiB
Duration                                 : 26 min 26 s
Overall bit rate mode                    : Variable
Overall bit rate                         : 7 345 kb/s
Movie name                               : [OZR] Monogatari Series Second Season - 09 (BD 1080p HEVC FLAC)
Writing application                      : mkvmerge v66.0.0 ('Josie') 64-bit
Writing library                          : libebml v1.4.2 + libmatroska v1.6.4
Attachments                              : Magra-Bold.ttf / CENTURYO.TTF / estre.ttf / IwaMinPro-Lt-Madoka.ttf / IwaOMinPro-Bd-Fate.ttf / LHF_Scriptana.ttf / Montara-Gothic.otf / Montara-Italic.otf / Reswysokr.otf

Video
ID                                       : 1
Format                                   : HEVC
Format/Info                              : High Efficiency Video Coding
Format profile                           : Main 10@L4@Main
Codec ID                                 : V_MPEGH/ISO/HEVC
Duration                                 : 26 min 26 s
Bit rate                                 : 6 074 kb/s
Width                                    : 1 920 pixels
Height                                   : 1 080 pixels
Display aspect ratio                     : 16:9
Frame rate mode                          : Constant
Frame rate                               : 23.976 (24000/1001) FPS
Color space                              : YUV
Chroma subsampling                       : 4:2:0
Bit depth                                : 10 bits
Bits/(Pixel*Frame)                       : 0.122
Stream size                              : 1.12 GiB (83%)
Title                                    : Kawaiika-Raws
Writing library                          : x265 3.1+7-147fb92c5ed5:[Linux][GCC 9.1.0][64 bit] 10bit
Encoding settings                        : cpuid=1049583 / frame-threads=2 / wpp / no-pmode / no-pme / no-psnr / no-ssim / log-level=2 / input-csp=1 / input-res=1920x1080 / interlace=0 / total-frames=38028 / level-idc=0 / high-tier=1 / uhd-bd=0 / ref=4 / no-allow-non-conformance / no-repeat-headers / annexb / no-aud / no-hrd / info / hash=0 / no-temporal-layers / open-gop / min-keyint=23 / keyint=260 / gop-lookahead=8 / bframes=10 / b-adapt=2 / b-pyramid / bframe-bias=0 / rc-lookahead=160 / lookahead-slices=1 / scenecut=35 / radl=0 / no-splice / no-intra-refresh / ctu=64 / min-cu-size=8 / no-rect / no-amp / max-tu-size=32 / tu-inter-depth=2 / tu-intra-depth=2 / limit-tu=0 / rdoq-level=2 / dynamic-rd=0.00 / no-ssim-rd / signhide / no-tskip / nr-intra=0 / nr-inter=0 / no-constrained-intra / strong-intra-smoothing / max-merge=5 / limit-refs=3 / no-limit-modes / me=3 / subme=7 / merange=48 / temporal-mvp / no-hme / weightp / weightb / no-analyze-src-pics / deblock=1:-1 / no-sao / no-sao-non-deblock / rd=4 / no-early-skip / no-rskip / no-fast-intra / no-tskip-fast / no-cu-lossless / no-b-intra / no-splitrd-skip / rdpenalty=0 / psy-rd=2.00 / psy-rdoq=2.00 / no-rd-refine / no-lossless / cbqpoffs=-2 / crqpoffs=-2 / rc=crf / crf=14.8 / qcomp=0.72 / qpstep=4 / stats-write=0 / stats-read=0 / ipratio=1.40 / pbratio=1.30 / aq-mode=3 / aq-strength=0.85 / no-cutree / zone-count=1 / zones: / start-frame=6529 / end-frame=10316 / bitrate-factor=0.950000 / no-strict-cbr / qg-size=32 / no-rc-grain / qpmax=69 / qpmin=0 / no-const-vbv / sar=1 / overscan=0 / videoformat=5 / range=0 / colorprim=1 / transfer=1 / colormatrix=1 / chromaloc=0 / display-window=0cll=0,0 / min-luma=0 / max-luma=1023 / log2-max-poc-lsb=8 / vui-timing-info / vui-hrd-info / slices=1 / no-opt-qp-pps / no-opt-ref-list-length-pps / no-multi-pass-opt-rps / scenecut-bias=0.05 / no-opt-cu-delta-qp / no-aq-motion / no-hdr / no-hdr-opt / no-dhdr10-opt / no-idr-recovery-sei / analysis-reuse-level=5 / scale-factor=0 / refine-intra=0 / refine-inter=0 / refine-mv=0 / refine-ctu-distortion=0 / no-limit-sao / ctu-info=0 / no-lowpass-dct / refine-analysis-type=0 / copy-pic=1 / max-ausize-factor=1.0 / no-dynamic-refine / no-single-sei / no-hevc-aq / no-svt / no-field / qp-adaptation-range=1.00
Language                                 : Japanese
Default                                  : Yes
Forced                                   : No
Color range                              : Limited
Color primaries                          : BT.709
Transfer characteristics                 : BT.709
Matrix coefficients                      : BT.709

Audio #1
ID                                       : 2
Format                                   : FLAC
Format/Info                              : Free Lossless Audio Codec
Codec ID                                 : A_FLAC
Duration                                 : 26 min 26 s
Bit rate mode                            : Variable
Bit rate                                 : 689 kb/s
Channel(s)                               : 2 channels
Channel layout                           : L R
Sampling rate                            : 48.0 kHz
Frame rate                               : 11.719 FPS (4096 SPF)
Bit depth                                : 16 bits
Compression mode                         : Lossless
Stream size                              : 130 MiB (9%)
Title                                    : Japanese 2.0 FLAC
Writing library                          : libFLAC 1.3.3 (UTC 2019-08-04)
Language                                 : Japanese
Default                                  : Yes
Forced                                   : No

Audio #2
ID                                       : 3
Format                                   : FLAC
Format/Info                              : Free Lossless Audio Codec
Codec ID                                 : A_FLAC
Duration                                 : 26 min 26 s
Bit rate mode                            : Variable
Bit rate                                 : 566 kb/s
Channel(s)                               : 2 channels
Channel layout                           : L R
Sampling rate                            : 48.0 kHz
Frame rate                               : 11.719 FPS (4096 SPF)
Bit depth                                : 16 bits
Compression mode                         : Lossless
Stream size                              : 107 MiB (8%)
Title                                    : Commentary 2.0 FLAC
Writing library                          : libFLAC 1.3.4 (UTC 2022-02-20)
Language                                 : Japanese
Default                                  : No
Forced                                   : No

Text #1
ID                                       : 4
Format                                   : ASS
Muxing mode                              : zlib
Codec ID                                 : S_TEXT/ASS
Codec ID/Info                            : Advanced Sub Station Alpha
Duration                                 : 26 min 23 s
Bit rate                                 : 1 877 b/s
Count of elements                        : 3321
Compression mode                         : Lossless
Stream size                              : 363 KiB (0%)
Title                                    : Full Subtitles [MTBB]
Language                                 : English
Default                                  : Yes
Forced                                   : No

Text #2
ID                                       : 5
Format                                   : ASS
Muxing mode                              : zlib
Codec ID                                 : S_TEXT/ASS
Codec ID/Info                            : Advanced Sub Station Alpha
Duration                                 : 26 min 23 s
Bit rate                                 : 1 877 b/s
Count of elements                        : 3321
Compression mode                         : Lossless
Stream size                              : 363 KiB (0%)
Title                                    : Honorifics [MTBB]
Language                                 : enm
Default                                  : No
Forced                                   : No

Text #3
ID                                       : 6
Format                                   : ASS
Muxing mode                              : zlib
Codec ID                                 : S_TEXT/ASS
Codec ID/Info                            : Advanced Sub Station Alpha
Duration                                 : 26 min 21 s
Bit rate                                 : 212 b/s
Count of elements                        : 677
Compression mode                         : Lossless
Stream size                              : 41.1 KiB (0%)
Title                                    : Commentary [XIG Fansubs]
Language                                 : English
Default                                  : No
Forced                                   : No

Menu
00:00:00.000                             : en:Chapter 26, Part A
00:00:53.053                             : en:OP
00:02:23.018                             : en:Title; Chapter 26, Part B
00:04:31.563                             : en:Chapter 27
00:07:33.161                             : en:Chapter 28
00:12:17.070                             : en:Chapter 29
00:20:10.334                             : en:Chapter 30
00:25:40.039                             : en:Next

Other Files in this Torrent
[OZR] Monogatari Series Second Season - 09 (BD 1080p HEVC FLAC) [F4226537].mkv
beta
Anime DDL+NZB mirror
Current Time: 07/12/2022 03:50



About/FAQs

Discord