[OZR] Monogatari Series Second Season - 15 (BD 1080p HEVC FLAC) [135723D1].mkv


File Size2.011 GB (2,159,635,906 bytes)
DownloadClickNUpload: Part1, Part2
DownloadGG: Part1, Part2, Part3
KrakenFiles: Part1, Part2, Part3
MultiUp: Part1
  • BdUpload
  • DownAce
  • Fichier
  • FileCloud
  • Filerio
  • FilesCdn
  • IndiShare
  • Kbagi
  • Turbobit
  • UpToBox
  • Uppit
, Part2
  • BdUpload
  • DownAce
  • Fichier
  • FileCloud
  • Filerio
  • FilesCdn
  • IndiShare
  • Kbagi
  • Turbobit
  • UpToBox
  • Uppit
, Part3
  • BdUpload
  • DownAce
  • Fichier
  • FileCloud
  • Filerio
  • FilesCdn
  • IndiShare
  • Kbagi
  • Turbobit
  • UpToBox
  • Uppit
, Part4
  • BdUpload
  • DownAce
  • Fichier
  • FileCloud
  • Filerio
  • FilesCdn
  • IndiShare
  • Kbagi
  • Turbobit
  • UpToBox
  • Uppit
, Part5
  • BdUpload
  • DownAce
  • Fichier
  • FileCloud
  • Filerio
  • FilesCdn
  • IndiShare
  • Kbagi
  • Turbobit
  • UpToBox
  • Uppit

ZippyShare: Part1, Part2, Part3, Part4, Part5
HashesCRC32: 135723D1, MD5: 158123D6E4EDA6D94B600DF829EFA5E3, SHA1: 779555179D0E5F3EAA3983488BADCE84E38CB659, SHA256: 7D537F398CA7D34BE49A512ED2CCE6F5225875A36C639206DF396BA7BE32261A, ED2K: 6C60DEB56310BAD72B6017A765BF414C
Screenshots
screenshotscreenshotscreenshotscreenshotscreenshot
SubtitlesAll Attachments | Full Subtitles [MTBB] [eng, ASS], Honorifics [MTBB] [enm, ASS], Commentary [XIG Fansubs] [eng, ASS]
Additional Info
General
Unique ID                                : 337166672542421226139655184424843157426 (0xFDA7F06831DA1635EB8AC22EBAB11FB2)
Complete name                            : [OZR] Monogatari Series Second Season - 15 (BD 1080p HEVC FLAC) [135723D1].mkv
Format                                   : Matroska
Format version                           : Version 4
File size                                : 2.01 GiB
Duration                                 : 26 min 3 s
Overall bit rate mode                    : Variable
Overall bit rate                         : 11.1 Mb/s
Movie name                               : [OZR] Monogatari Series Second Season - 15 (BD 1080p HEVC FLAC)
Writing application                      : mkvmerge v66.0.0 ('Josie') 64-bit
Writing library                          : libebml v1.4.2 + libmatroska v1.6.4
Attachments                              : Magra-Bold.ttf / AvenirLTStd-Heavy.otf / IwaMinPro-Lt-Madoka.ttf / IwaOMinPro-Bd-Fate.ttf / Montara-Gothic.otf / Montara-Italic.otf / NEWBASK.TTF

Video
ID                                       : 1
Format                                   : HEVC
Format/Info                              : High Efficiency Video Coding
Format profile                           : Main 10@L4@Main
Codec ID                                 : V_MPEGH/ISO/HEVC
Duration                                 : 26 min 3 s
Bit rate                                 : 9 765 kb/s
Width                                    : 1 920 pixels
Height                                   : 1 080 pixels
Display aspect ratio                     : 16:9
Frame rate mode                          : Constant
Frame rate                               : 23.976 (24000/1001) FPS
Color space                              : YUV
Chroma subsampling                       : 4:2:0
Bit depth                                : 10 bits
Bits/(Pixel*Frame)                       : 0.196
Stream size                              : 1.78 GiB (88%)
Title                                    : Kawaiika-Raws
Writing library                          : x265 3.1+1-dcd4c18582fb:[Linux][GCC 8.3.0][64 bit] 10bit
Encoding settings                        : cpuid=1049583 / frame-threads=2 / wpp / no-pmode / no-pme / no-psnr / no-ssim / log-level=2 / input-csp=1 / input-res=1920x1080 / interlace=0 / total-frames=37480 / level-idc=0 / high-tier=1 / uhd-bd=0 / ref=4 / no-allow-non-conformance / no-repeat-headers / annexb / no-aud / no-hrd / info / hash=0 / no-temporal-layers / open-gop / min-keyint=23 / keyint=260 / gop-lookahead=8 / bframes=10 / b-adapt=2 / b-pyramid / bframe-bias=0 / rc-lookahead=160 / lookahead-slices=1 / scenecut=35 / radl=0 / no-splice / no-intra-refresh / ctu=64 / min-cu-size=8 / no-rect / no-amp / max-tu-size=32 / tu-inter-depth=2 / tu-intra-depth=2 / limit-tu=0 / rdoq-level=2 / dynamic-rd=0.00 / no-ssim-rd / signhide / no-tskip / nr-intra=0 / nr-inter=0 / no-constrained-intra / strong-intra-smoothing / max-merge=5 / limit-refs=3 / no-limit-modes / me=3 / subme=7 / merange=48 / temporal-mvp / weightp / weightb / no-analyze-src-pics / deblock=1:-1 / no-sao / no-sao-non-deblock / rd=4 / no-early-skip / no-rskip / no-fast-intra / no-tskip-fast / no-cu-lossless / no-b-intra / no-splitrd-skip / rdpenalty=0 / psy-rd=2.00 / psy-rdoq=2.00 / no-rd-refine / no-lossless / cbqpoffs=-2 / crqpoffs=-2 / rc=crf / crf=14.8 / qcomp=0.72 / qpstep=4 / stats-write=0 / stats-read=0 / ipratio=1.40 / pbratio=1.30 / aq-mode=3 / aq-strength=0.85 / no-cutree / zone-count=18 / zones: / start-frame=28104 / end-frame=30260 / bitrate-factor=0.980000 / zones: / start-frame=2734 / end-frame=3707 / bitrate-factor=0.700000 / zones: / start-frame=3708 / end-frame=4173 / bitrate-factor=0.950000 / zones: / start-frame=0 / end-frame=2733 / bitrate-factor=0.900000 / zones: / start-frame=4269 / end-frame=5977 / bitrate-factor=0.900000 / zones: / start-frame=7603 / end-frame=11725 / bitrate-factor=0.900000 / zones: / start-frame=13819 / end-frame=14754 / bitrate-factor=0.900000 / zones: / start-frame=16426 / end-frame=17715 / bitrate-factor=0.900000 / zones: / start-frame=17728 / end-frame=17777 / bitrate-factor=0.900000 / zones: / start-frame=17790 / end-frame=18108 / bitrate-factor=0.900000 / zones: / start-frame=18116 / end-frame=18155 / bitrate-factor=0.900000 / zones: / start-frame=18168 / end-frame=18535 / bitrate-factor=0.900000 / zones: / start-frame=23796 / end-frame=24572 / bitrate-factor=0.900000 / zones: / start-frame=26272 / end-frame=26745 / bitrate-factor=0.900000 / zones: / start-frame=26782 / end-frame=27603 / bitrate-factor=0.900000 / zones: / start-frame=27652 / end-frame=27745 / bitrate-factor=0.900000 / zones: / start-frame=23574 / end-frame=23795 / bitrate-factor=0.850000 / zones: / start-frame=22943 / end-frame=23295 / bitrate-factor=0.800000 / no-strict-cbr / qg-size=32 / no-rc-grain / qpmax=69 / qpmin=0 / no-const-vbv / sar=1 / overscan=0 / videoformat=5 / range=0 / colorprim=1 / transfer=1 / colormatrix=1 / chromaloc=0 / display-window=0cll=0,0 / min-luma=0 / max-luma=1023 / log2-max-poc-lsb=8 / vui-timing-info / vui-hrd-info / slices=1 / no-opt-qp-pps / no-opt-ref-list-length-pps / no-multi-pass-opt-rps / scenecut-bias=0.05 / no-opt-cu-delta-qp / no-aq-motion / no-hdr / no-hdr-opt / no-dhdr10-opt / no-idr-recovery-sei / analysis-reuse-level=5 / scale-factor=0 / refine-intra=0 / refine-inter=0 / refine-mv=0 / refine-ctu-distortion=0 / no-limit-sao / ctu-info=0 / no-lowpass-dct / refine-analysis-type=0 / copy-pic=1 / max-ausize-factor=1.0 / no-dynamic-refine / no-single-sei / no-hevc-aq / no-svt / no-field / qp-adaptation-range=1.00
Language                                 : Japanese
Default                                  : Yes
Forced                                   : No
Color range                              : Limited
Color primaries                          : BT.709
Transfer characteristics                 : BT.709
Matrix coefficients                      : BT.709

Audio #1
ID                                       : 2
Format                                   : FLAC
Format/Info                              : Free Lossless Audio Codec
Codec ID                                 : A_FLAC
Duration                                 : 26 min 3 s
Bit rate mode                            : Variable
Bit rate                                 : 710 kb/s
Channel(s)                               : 2 channels
Channel layout                           : L R
Sampling rate                            : 48.0 kHz
Frame rate                               : 11.719 FPS (4096 SPF)
Bit depth                                : 16 bits
Compression mode                         : Lossless
Stream size                              : 132 MiB (6%)
Title                                    : Japanese 2.0 FLAC
Writing library                          : libFLAC 1.3.3 (UTC 2019-08-04)
Language                                 : Japanese
Default                                  : Yes
Forced                                   : No

Audio #2
ID                                       : 3
Format                                   : FLAC
Format/Info                              : Free Lossless Audio Codec
Codec ID                                 : A_FLAC
Duration                                 : 26 min 3 s
Bit rate mode                            : Variable
Bit rate                                 : 563 kb/s
Channel(s)                               : 2 channels
Channel layout                           : L R
Sampling rate                            : 48.0 kHz
Frame rate                               : 11.719 FPS (4096 SPF)
Bit depth                                : 16 bits
Compression mode                         : Lossless
Stream size                              : 105 MiB (5%)
Title                                    : Commentary 2.0 FLAC
Writing library                          : libFLAC 1.3.4 (UTC 2022-02-20)
Language                                 : Japanese
Default                                  : No
Forced                                   : No

Text #1
ID                                       : 4
Format                                   : ASS
Muxing mode                              : zlib
Codec ID                                 : S_TEXT/ASS
Codec ID/Info                            : Advanced Sub Station Alpha
Duration                                 : 26 min 0 s
Bit rate                                 : 1 607 b/s
Count of elements                        : 2821
Compression mode                         : Lossless
Stream size                              : 306 KiB (0%)
Title                                    : Full Subtitles [MTBB]
Language                                 : English
Default                                  : Yes
Forced                                   : No

Text #2
ID                                       : 5
Format                                   : ASS
Muxing mode                              : zlib
Codec ID                                 : S_TEXT/ASS
Codec ID/Info                            : Advanced Sub Station Alpha
Duration                                 : 26 min 0 s
Bit rate                                 : 1 521 b/s
Count of elements                        : 2821
Compression mode                         : Lossless
Stream size                              : 290 KiB (0%)
Title                                    : Honorifics [MTBB]
Language                                 : enm
Default                                  : No
Forced                                   : No

Text #3
ID                                       : 6
Format                                   : ASS
Muxing mode                              : zlib
Codec ID                                 : S_TEXT/ASS
Codec ID/Info                            : Advanced Sub Station Alpha
Duration                                 : 25 min 57 s
Bit rate                                 : 204 b/s
Count of elements                        : 596
Compression mode                         : Lossless
Stream size                              : 38.8 KiB (0%)
Title                                    : Commentary [XIG Fansubs]
Language                                 : English
Default                                  : No
Forced                                   : No

Menu
00:00:00.000                             : en:Chapter 7
00:01:54.031                             : en:OP
00:02:54.091                             : en:Title
00:02:57.094                             : en:Chapter 8
00:04:09.333                             : en:Chapter 9
00:05:16.400                             : en:Chapter 10
00:08:09.072                             : en:Chapter 11
00:09:35.909                             : en:Chapter 12
00:10:15.407                             : en:Chapter 13
00:11:24.643                             : en:Chapter 14
00:12:53.106                             : en:Chapter 15
00:14:51.182                             : en:Chapter 16
00:15:29.971                             : en:Chapter 17
00:15:56.372                             : en:Chapter 18
00:17:04.899                             : en:Chapter 19
00:18:04.500                             : en:Chapter 20
00:19:32.171                             : en:ED
00:21:02.136                             : en:Chapter 21
00:25:10.134                             : en:Next

Other Files in this Torrent
[OZR] Monogatari Series Second Season - 15 (BD 1080p HEVC FLAC) [135723D1].mkv
beta
Anime DDL+NZB mirror
Current Time: 03/10/2022 08:24



About/FAQs

Discord