[OZR] Monogatari Series Second Season - 22 (BD 1080p HEVC FLAC) [012D3A2B].mkv


File Size1.088 GB (1,167,712,651 bytes)
DownloadClickNUpload
DownloadGG: Part1, Part2
KrakenFiles: Part1, Part2
MultiUp: Part1
  • BdUpload
  • DownAce
  • Fichier
  • FileCloud
  • Filerio
  • FilesCdn
  • IndiShare
  • Kbagi
  • Turbobit
  • UpToBox
  • Uppit
, Part2
  • BdUpload
  • DownAce
  • Fichier
  • FileCloud
  • Filerio
  • FilesCdn
  • IndiShare
  • Kbagi
  • Turbobit
  • UpToBox
  • Uppit
, Part3
  • BdUpload
  • DownAce
  • Fichier
  • FileCloud
  • Filerio
  • FilesCdn
  • IndiShare
  • Kbagi
  • Turbobit
  • UpToBox
  • Uppit

ZippyShare: Part1, Part2, Part3
HashesCRC32: 012D3A2B, MD5: CD6FC2B57DC83E2AA84CEDA97AEBD962, SHA1: E16639F2C2B6AE11B967C41C64463622ED744D16, SHA256: 1957D360F55E7BF3C73E412BAFA05BB28479D78CDCE8E08BF8D56C9B62C6A024, ED2K: 74E3B3FA105C427A77225702C6EEDF39
Screenshots
screenshotscreenshotscreenshotscreenshotscreenshot
SubtitlesAll Attachments | Full Subtitles [MTBB] [eng, ASS], Honorifics [MTBB] [enm, ASS], Commentary [XIG Fansubs] [eng, ASS]
Additional Info
General
Unique ID                                : 182892853930272069267090475375639149934 (0x8997E1E4F54DDD8716407611A8503D6E)
Complete name                            : [OZR] Monogatari Series Second Season - 22 (BD 1080p HEVC FLAC) [012D3A2B].mkv
Format                                   : Matroska
Format version                           : Version 4
File size                                : 1.09 GiB
Duration                                 : 25 min 0 s
Overall bit rate mode                    : Variable
Overall bit rate                         : 6 225 kb/s
Movie name                               : [OZR] Monogatari Series Second Season - 22 (BD 1080p HEVC FLAC)
Writing application                      : mkvmerge v66.0.0 ('Josie') 64-bit
Writing library                          : libebml v1.4.2 + libmatroska v1.6.4
Attachments                              : arial.ttf / Magra-Bold.ttf / CenturyOldStyle-Light Bold.ttf / IwaMinPro-Lt-Madoka.ttf / IwaOMinPro-Bd-Fate.ttf / IWATAMINCHOPROM-STR.TTF / LHF_Scriptana.ttf / Montara-Gothic.otf / Montara-Italic.otf / NewBaskerville.ttf / Reswysokr.otf

Video
ID                                       : 1
Format                                   : HEVC
Format/Info                              : High Efficiency Video Coding
Format profile                           : Main 10@L4@Main
Codec ID                                 : V_MPEGH/ISO/HEVC
Duration                                 : 25 min 0 s
Bit rate                                 : 5 046 kb/s
Width                                    : 1 920 pixels
Height                                   : 1 080 pixels
Display aspect ratio                     : 16:9
Frame rate mode                          : Constant
Frame rate                               : 23.976 (24000/1001) FPS
Color space                              : YUV
Chroma subsampling                       : 4:2:0
Bit depth                                : 10 bits
Bits/(Pixel*Frame)                       : 0.101
Stream size                              : 903 MiB (81%)
Title                                    : Kawaiika-Raws
Writing library                          : x265 3.1+2-6f7c2ae0d5bd:[Linux][GCC 9.1.0][64 bit] 10bit
Encoding settings                        : cpuid=1049583 / frame-threads=2 / wpp / no-pmode / no-pme / no-psnr / no-ssim / log-level=2 / input-csp=1 / input-res=1920x1080 / interlace=0 / total-frames=35980 / level-idc=0 / high-tier=1 / uhd-bd=0 / ref=4 / no-allow-non-conformance / no-repeat-headers / annexb / no-aud / no-hrd / info / hash=0 / no-temporal-layers / open-gop / min-keyint=23 / keyint=260 / gop-lookahead=8 / bframes=10 / b-adapt=2 / b-pyramid / bframe-bias=0 / rc-lookahead=160 / lookahead-slices=1 / scenecut=35 / radl=0 / no-splice / no-intra-refresh / ctu=64 / min-cu-size=8 / no-rect / no-amp / max-tu-size=32 / tu-inter-depth=2 / tu-intra-depth=2 / limit-tu=0 / rdoq-level=2 / dynamic-rd=0.00 / no-ssim-rd / signhide / no-tskip / nr-intra=0 / nr-inter=0 / no-constrained-intra / strong-intra-smoothing / max-merge=5 / limit-refs=3 / no-limit-modes / me=3 / subme=7 / merange=48 / temporal-mvp / weightp / weightb / no-analyze-src-pics / deblock=1:-1 / no-sao / no-sao-non-deblock / rd=4 / no-early-skip / no-rskip / no-fast-intra / no-tskip-fast / no-cu-lossless / no-b-intra / no-splitrd-skip / rdpenalty=0 / psy-rd=2.00 / psy-rdoq=2.00 / no-rd-refine / no-lossless / cbqpoffs=-2 / crqpoffs=-2 / rc=crf / crf=14.8 / qcomp=0.72 / qpstep=4 / stats-write=0 / stats-read=0 / ipratio=1.40 / pbratio=1.30 / aq-mode=3 / aq-strength=0.85 / no-cutree / zone-count=1 / zones: / start-frame=32609 / end-frame=34765 / bitrate-factor=0.920000 / no-strict-cbr / qg-size=32 / no-rc-grain / qpmax=69 / qpmin=0 / no-const-vbv / sar=1 / overscan=0 / videoformat=5 / range=0 / colorprim=1 / transfer=1 / colormatrix=1 / chromaloc=0 / display-window=0cll=0,0 / min-luma=0 / max-luma=1023 / log2-max-poc-lsb=8 / vui-timing-info / vui-hrd-info / slices=1 / no-opt-qp-pps / no-opt-ref-list-length-pps / no-multi-pass-opt-rps / scenecut-bias=0.05 / no-opt-cu-delta-qp / no-aq-motion / no-hdr / no-hdr-opt / no-dhdr10-opt / no-idr-recovery-sei / analysis-reuse-level=5 / scale-factor=0 / refine-intra=0 / refine-inter=0 / refine-mv=0 / refine-ctu-distortion=0 / no-limit-sao / ctu-info=0 / no-lowpass-dct / refine-analysis-type=0 / copy-pic=1 / max-ausize-factor=1.0 / no-dynamic-refine / no-single-sei / no-hevc-aq / no-svt / no-field / qp-adaptation-range=1.00
Language                                 : Japanese
Default                                  : Yes
Forced                                   : No
Color range                              : Limited
Color primaries                          : BT.709
Transfer characteristics                 : BT.709
Matrix coefficients                      : BT.709

Audio #1
ID                                       : 2
Format                                   : FLAC
Format/Info                              : Free Lossless Audio Codec
Codec ID                                 : A_FLAC
Duration                                 : 25 min 0 s
Bit rate mode                            : Variable
Bit rate                                 : 637 kb/s
Channel(s)                               : 2 channels
Channel layout                           : L R
Sampling rate                            : 48.0 kHz
Frame rate                               : 11.719 FPS (4096 SPF)
Bit depth                                : 16 bits
Compression mode                         : Lossless
Stream size                              : 114 MiB (10%)
Title                                    : Japanese 2.0 FLAC
Writing library                          : libFLAC 1.3.3 (UTC 2019-08-04)
Language                                 : Japanese
Default                                  : Yes
Forced                                   : No

Audio #2
ID                                       : 3
Format                                   : FLAC
Format/Info                              : Free Lossless Audio Codec
Codec ID                                 : A_FLAC
Duration                                 : 25 min 0 s
Bit rate mode                            : Variable
Bit rate                                 : 518 kb/s
Channel(s)                               : 2 channels
Channel layout                           : L R
Sampling rate                            : 48.0 kHz
Frame rate                               : 11.719 FPS (4096 SPF)
Bit depth                                : 16 bits
Compression mode                         : Lossless
Stream size                              : 92.7 MiB (8%)
Title                                    : Commentary 2.0 FLAC
Writing library                          : libFLAC 1.3.4 (UTC 2022-02-20)
Language                                 : Japanese
Default                                  : No
Forced                                   : No

Text #1
ID                                       : 4
Format                                   : ASS
Muxing mode                              : zlib
Codec ID                                 : S_TEXT/ASS
Codec ID/Info                            : Advanced Sub Station Alpha
Duration                                 : 24 min 58 s
Bit rate                                 : 1 641 b/s
Count of elements                        : 2765
Compression mode                         : Lossless
Stream size                              : 300 KiB (0%)
Title                                    : Full Subtitles [MTBB]
Language                                 : English
Default                                  : Yes
Forced                                   : No

Text #2
ID                                       : 5
Format                                   : ASS
Muxing mode                              : zlib
Codec ID                                 : S_TEXT/ASS
Codec ID/Info                            : Advanced Sub Station Alpha
Duration                                 : 24 min 58 s
Bit rate                                 : 1 578 b/s
Count of elements                        : 2765
Compression mode                         : Lossless
Stream size                              : 289 KiB (0%)
Title                                    : Honorifics [MTBB]
Language                                 : enm
Default                                  : No
Forced                                   : No

Text #3
ID                                       : 6
Format                                   : ASS
Muxing mode                              : zlib
Codec ID                                 : S_TEXT/ASS
Codec ID/Info                            : Advanced Sub Station Alpha
Duration                                 : 24 min 57 s
Bit rate                                 : 226 b/s
Count of elements                        : 604
Compression mode                         : Lossless
Stream size                              : 41.3 KiB (0%)
Title                                    : Commentary [XIG Fansubs]
Language                                 : English
Default                                  : No
Forced                                   : No

Menu
00:00:00.000                             : en:Chapter 31
00:05:54.020                             : en:OP
00:07:23.985                             : en:Title
00:07:26.988                             : en:Chapter 32
00:09:04.710                             : en:Chapter 33
00:14:20.025                             : en:Chapter 34
00:19:30.002                             : en:Chapter 35
00:22:40.067                             : en:ED
00:24:10.032                             : en:Next

Other Files in this Torrent
[OZR] Monogatari Series Second Season - 22 (BD 1080p HEVC FLAC) [012D3A2B].mkv
beta
Anime DDL+NZB mirror
Current Time: 28/11/2022 12:24



About/FAQs

Discord