Extras/[OZR] Monogatari Series Second Season - NCED2a (BD 1080p HEVC FLAC) [DEA61757].mkv


File Size149.2 MB (156,435,915 bytes)
DownloadAnonFiles | ClickNUpload | DownloadGG | KrakenFiles | MultiUp
  • BdUpload
  • DownAce
  • Fichier
  • FileCloud
  • Filerio
  • FilesCdn
  • IndiShare
  • Kbagi
  • Turbobit
  • UpToBox
  • Uppit
| ZippyShare
HashesCRC32: DEA61757, MD5: 95B5831227A0D67FA25E7CDDF7BD44A6, SHA1: E47A0D0F65FA06E069AABB630ED0C4B8E6C8ACAF, SHA256: 8D67E5CF7B4499ACA408E329EC6F48D8DFA3A6126D5595A89DFCA8590BBD37FB, ED2K: 2CA85C6048B08BF61A66A45037CAAFF5
Screenshots
screenshotscreenshot
SubtitlesAll Attachments | Songs [MTBB] [eng, ASS]
Additional Info
General
Unique ID                                : 16302153081155910277772593985669351461 (0xC43AE33C953C5F9EDAA62D69660C825)
Complete name                            : [OZR] Monogatari Series Second Season - NCED2a (BD 1080p HEVC FLAC) [DEA61757].mkv
Format                                   : Matroska
Format version                           : Version 4
File size                                : 149 MiB
Duration                                 : 1 min 31 s
Overall bit rate mode                    : Variable
Overall bit rate                         : 13.7 Mb/s
Movie name                               : [OZR] Monogatari Series Second Season - NCED2a (BD 1080p HEVC FLAC)
Writing application                      : mkvmerge v66.0.0 ('Josie') 64-bit
Writing library                          : libebml v1.4.2 + libmatroska v1.6.4
Attachments                              : NEWBASK.TTF

Video
ID                                       : 1
Format                                   : HEVC
Format/Info                              : High Efficiency Video Coding
Format profile                           : Main 10@L4@Main
Codec ID                                 : V_MPEGH/ISO/HEVC
Duration                                 : 1 min 31 s
Bit rate                                 : 12.7 Mb/s
Width                                    : 1 920 pixels
Height                                   : 1 080 pixels
Display aspect ratio                     : 16:9
Frame rate mode                          : Constant
Frame rate                               : 23.976 FPS
Color space                              : YUV
Chroma subsampling                       : 4:2:0
Bit depth                                : 10 bits
Bits/(Pixel*Frame)                       : 0.256
Stream size                              : 139 MiB (93%)
Title                                    : BDRip by DeadNews
Writing library                          : x265 3.1.1:[Linux][GCC 9.1.0][64 bit] 10bit
Encoding settings                        : cpuid=1111039 / frame-threads=2 / wpp / no-pmode / no-pme / no-psnr / no-ssim / log-level=2 / input-csp=1 / input-res=1920x1080 / interlace=0 / total-frames=2196 / level-idc=0 / high-tier=1 / uhd-bd=0 / ref=4 / no-allow-non-conformance / no-repeat-headers / annexb / no-aud / no-hrd / info / hash=0 / no-temporal-layers / open-gop / min-keyint=23 / keyint=250 / gop-lookahead=8 / bframes=16 / b-adapt=2 / b-pyramid / bframe-bias=0 / rc-lookahead=250 / lookahead-slices=1 / scenecut=40 / radl=0 / no-splice / no-intra-refresh / ctu=64 / min-cu-size=8 / no-rect / no-amp / max-tu-size=32 / tu-inter-depth=2 / tu-intra-depth=2 / limit-tu=0 / rdoq-level=2 / dynamic-rd=0.00 / no-ssim-rd / signhide / no-tskip / nr-intra=0 / nr-inter=0 / no-constrained-intra / strong-intra-smoothing / max-merge=5 / limit-refs=3 / no-limit-modes / me=3 / subme=7 / merange=48 / temporal-mvp / weightp / weightb / no-analyze-src-pics / deblock=1:-1 / no-sao / no-sao-non-deblock / rd=4 / no-early-skip / no-rskip / no-fast-intra / no-tskip-fast / no-cu-lossless / no-b-intra / no-splitrd-skip / rdpenalty=0 / psy-rd=2.00 / psy-rdoq=2.00 / no-rd-refine / no-lossless / cbqpoffs=-2 / crqpoffs=-2 / rc=crf / crf=14.8 / qcomp=0.72 / qpstep=4 / stats-write=0 / stats-read=0 / ipratio=1.40 / pbratio=1.30 / aq-mode=3 / aq-strength=0.85 / no-cutree / zone-count=1 / zones: / start-frame=0 / end-frame=2184 / bitrate-factor=0.980000 / no-strict-cbr / qg-size=32 / no-rc-grain / qpmax=69 / qpmin=0 / no-const-vbv / sar=1 / overscan=0 / videoformat=5 / range=0 / colorprim=1 / transfer=1 / colormatrix=1 / chromaloc=0 / display-window=0cll=0,0 / min-luma=0 / max-luma=1023 / log2-max-poc-lsb=8 / vui-timing-info / vui-hrd-info / slices=1 / no-opt-qp-pps / no-opt-ref-list-length-pps / no-multi-pass-opt-rps / scenecut-bias=0.05 / no-opt-cu-delta-qp / no-aq-motion / no-hdr / no-hdr-opt / no-dhdr10-opt / no-idr-recovery-sei / analysis-reuse-level=5 / scale-factor=0 / refine-intra=0 / refine-inter=0 / refine-mv=0 / refine-ctu-distortion=0 / no-limit-sao / ctu-info=0 / no-lowpass-dct / refine-analysis-type=0 / copy-pic=1 / max-ausize-factor=1.0 / no-dynamic-refine / no-single-sei / no-hevc-aq / no-svt / no-field / qp-adaptation-range=1.00
Language                                 : Japanese
Default                                  : Yes
Forced                                   : No
Color range                              : Limited
Color primaries                          : BT.709
Transfer characteristics                 : BT.709
Matrix coefficients                      : BT.709

Audio
ID                                       : 2
Format                                   : FLAC
Format/Info                              : Free Lossless Audio Codec
Codec ID                                 : A_FLAC
Duration                                 : 1 min 31 s
Bit rate mode                            : Variable
Bit rate                                 : 917 kb/s
Channel(s)                               : 2 channels
Channel layout                           : L R
Sampling rate                            : 48.0 kHz
Frame rate                               : 11.726 FPS (4093 SPF)
Bit depth                                : 16 bits
Compression mode                         : Lossless
Stream size                              : 10.0 MiB (7%)
Title                                    : Japanese 2.0 FLAC
Writing library                          : libFLAC 1.3.3 (UTC 2019-08-04)
Language                                 : Japanese
Default                                  : Yes
Forced                                   : No

Text
ID                                       : 3
Format                                   : ASS
Muxing mode                              : zlib
Codec ID                                 : S_TEXT/ASS
Codec ID/Info                            : Advanced Sub Station Alpha
Duration                                 : 1 min 25 s
Bit rate                                 : 645 b/s
Count of elements                        : 16
Compression mode                         : Lossless
Stream size                              : 6.75 KiB (0%)
Title                                    : Songs [MTBB]
Language                                 : English
Default                                  : Yes
Forced                                   : No

Other Files in this Torrent
Extras/[OZR] Monogatari Series Second Season - NCED2a (BD 1080p HEVC FLAC) [DEA61757].mkv
beta
Anime DDL+NZB mirror
Current Time: 03/10/2022 08:26



About/FAQs

Discord