File Size1.049 GB (1,126,457,496 bytes)
DownloadClickNUpload
DownloadGG: Part1, Part2
KrakenFiles: Part1, Part2
MultiUp: Part1
  • BdUpload
  • DownAce
  • Fichier
  • FileCloud
  • Filerio
  • FilesCdn
  • IndiShare
  • Kbagi
  • Turbobit
  • UpToBox
  • Uppit
, Part2
  • BdUpload
  • DownAce
  • Fichier
  • FileCloud
  • Filerio
  • FilesCdn
  • IndiShare
  • Kbagi
  • Turbobit
  • UpToBox
  • Uppit
, Part3
  • BdUpload
  • DownAce
  • Fichier
  • FileCloud
  • Filerio
  • FilesCdn
  • IndiShare
  • Kbagi
  • Turbobit
  • UpToBox
  • Uppit

ZippyShare: Part1, Part2, Part3
HashesCRC32: D84A855E, MD5: BCAF721A9486E9B1797D72129502F7C0, SHA1: D29C6E0C0957E1189C27DF5E8C30A5096F5D97D2, SHA256: 24E4071F390951D1548EC3DBBCECD4A49C81464FC79EBC71CBA699596678254E, ED2K: 013F20BB93838BEBF794159E22431466
Screenshots
screenshotscreenshotscreenshotscreenshotscreenshot
SubtitlesAll Attachments | und [SRT], und [SRT]
Additional Info
General
Unique ID                                : 321010973145803165018493961623305523115 (0xF18076EDC96CFAB73E36754D9EF50FAB)
Complete name                            : One Piece Season 14 Episode 903.mkv
Format                                   : Matroska
Format version                           : Version 4
File size                                : 1.05 GiB
Duration                                 : 24 min 9 s
Overall bit rate                         : 6 218 kb/s
Encoded date                             : UTC 2023-01-18 05:44:16
Writing application                      : mkvmerge v71.1.0 ('Fortitude') 64-bit
Writing library                          : libebml v1.4.4 + libmatroska v1.7.1 / Lavf59.34.102

Video
ID                                       : 1
Format                                   : AVC
Format/Info                              : Advanced Video Codec
Format profile                           : High@L4
Format settings                          : CABAC / 3 Ref Frames
Format settings, CABAC                   : Yes
Format settings, Reference frames        : 3 frames
Codec ID                                 : V_MPEG4/ISO/AVC
Duration                                 : 24 min 9 s
Bit rate                                 : 5 960 kb/s
Width                                    : 1 920 pixels
Height                                   : 1 080 pixels
Display aspect ratio                     : 16:9
Frame rate mode                          : Variable
Frame rate                               : 23.895 FPS
Original frame rate                      : 23.976 (24000/1001) FPS
Color space                              : YUV
Chroma subsampling                       : 4:2:0
Bit depth                                : 8 bits
Scan type                                : Progressive
Bits/(Pixel*Frame)                       : 0.120
Stream size                              : 1.01 GiB (96%)
Default                                  : No
Forced                                   : No
Color range                              : Limited
Matrix coefficients                      : BT.709
VARIANT_BITRATE                          : 0

Audio
ID                                       : 2
Format                                   : AAC LC
Format/Info                              : Advanced Audio Codec Low Complexity
Codec ID                                 : A_AAC-2
Duration                                 : 24 min 9 s
Bit rate                                 : 256 kb/s
Channel(s)                               : 2 channels
Channel layout                           : L R
Sampling rate                            : 48.0 kHz
Frame rate                               : 46.875 FPS (1024 SPF)
Compression mode                         : Lossy
Stream size                              : 44.2 MiB (4%)
Language                                 : English
Default                                  : No
Forced                                   : No
ID3V2_PRIV.COM.APPLE.STREAMING.TRANSPORT : \x00\x00\x00\x00\x00\x0d\xac\xa0
VARIANT_BITRATE                          : 0

Text #1
ID                                       : 3
Format                                   : UTF-8
Codec ID                                 : S_TEXT/UTF8
Codec ID/Info                            : UTF-8 Plain Text
Duration                                 : 23 min 32 s
Bit rate                                 : 30 b/s
Count of elements                        : 179
Stream size                              : 5.28 KiB (0%)
Default                                  : Yes
Forced                                   : No

Text #2
ID                                       : 4
Format                                   : UTF-8
Codec ID                                 : S_TEXT/UTF8
Codec ID/Info                            : UTF-8 Plain Text
Duration                                 : 23 min 32 s
Bit rate                                 : 30 b/s
Count of elements                        : 177
Stream size                              : 5.23 KiB (0%)
Default                                  : Yes
Forced                                   : No

Other Files in this Torrent
One Piece Season 14 Episode 903.mkv
beta
Anime DDL+NZB mirror
Current Time: 14/07/2024 20:11



About/FAQs

Discord