File Size1.050 GB (1,126,904,741 bytes)
DownloadClickNUpload
DownloadGG: Part1, Part2
KrakenFiles: Part1, Part2
MultiUp: Part1
  • BdUpload
  • DownAce
  • Fichier
  • FileCloud
  • Filerio
  • FilesCdn
  • IndiShare
  • Kbagi
  • Turbobit
  • UpToBox
  • Uppit
, Part2
  • BdUpload
  • DownAce
  • Fichier
  • FileCloud
  • Filerio
  • FilesCdn
  • IndiShare
  • Kbagi
  • Turbobit
  • UpToBox
  • Uppit
, Part3
  • BdUpload
  • DownAce
  • Fichier
  • FileCloud
  • Filerio
  • FilesCdn
  • IndiShare
  • Kbagi
  • Turbobit
  • UpToBox
  • Uppit

ZippyShare: Part1, Part2, Part3
HashesCRC32: 3EF1BE1B, MD5: D5E2988B8C9DC42AAFCD99B1BE3293EB, SHA1: CBF32269DE09A6D2CDB540BC3CAC52DD9CA90339, SHA256: 2BE56F5D699BF4392576E869A2CFCFB5E65C1B5F114DFE7276ACC720F4101A61, ED2K: 14F6744E3530FC9090821C3D2D035DAD
Screenshots
screenshotscreenshotscreenshotscreenshotscreenshot
SubtitlesAll Attachments | und [SRT], und [SRT]
Additional Info
General
Unique ID                                : 156452996900202560602555308541702911748 (0x75B3C04C25D27E7DB3E675E57A193704)
Complete name                            : One Piece Season 14 Episode 892.mkv
Format                                   : Matroska
Format version                           : Version 4
File size                                : 1.05 GiB
Duration                                 : 24 min 9 s
Overall bit rate                         : 6 222 kb/s
Encoded date                             : UTC 2023-01-18 05:34:25
Writing application                      : mkvmerge v71.1.0 ('Fortitude') 64-bit
Writing library                          : libebml v1.4.4 + libmatroska v1.7.1 / Lavf59.34.102

Video
ID                                       : 1
Format                                   : AVC
Format/Info                              : Advanced Video Codec
Format profile                           : High@L4
Format settings                          : CABAC / 3 Ref Frames
Format settings, CABAC                   : Yes
Format settings, Reference frames        : 3 frames
Codec ID                                 : V_MPEG4/ISO/AVC
Duration                                 : 24 min 8 s
Bit rate                                 : 5 964 kb/s
Width                                    : 1 920 pixels
Height                                   : 1 080 pixels
Display aspect ratio                     : 16:9
Frame rate mode                          : Variable
Frame rate                               : 23.803 FPS
Original frame rate                      : 23.976 (24000/1001) FPS
Color space                              : YUV
Chroma subsampling                       : 4:2:0
Bit depth                                : 8 bits
Scan type                                : Progressive
Bits/(Pixel*Frame)                       : 0.121
Stream size                              : 1.01 GiB (96%)
Default                                  : No
Forced                                   : No
Color range                              : Limited
Matrix coefficients                      : BT.709
VARIANT_BITRATE                          : 0

Audio
ID                                       : 2
Format                                   : AAC LC
Format/Info                              : Advanced Audio Codec Low Complexity
Codec ID                                 : A_AAC-2
Duration                                 : 24 min 9 s
Bit rate                                 : 255 kb/s
Channel(s)                               : 2 channels
Channel layout                           : L R
Sampling rate                            : 48.0 kHz
Frame rate                               : 46.875 FPS (1024 SPF)
Compression mode                         : Lossy
Stream size                              : 44.1 MiB (4%)
Language                                 : English
Default                                  : No
Forced                                   : No
ID3V2_PRIV.COM.APPLE.STREAMING.TRANSPORT : \x00\x00\x00\x00\x00\x0d\xac\xa0
VARIANT_BITRATE                          : 0

Text #1
ID                                       : 3
Format                                   : UTF-8
Codec ID                                 : S_TEXT/UTF8
Codec ID/Info                            : UTF-8 Plain Text
Duration                                 : 23 min 31 s
Bit rate                                 : 40 b/s
Count of elements                        : 212
Stream size                              : 6.97 KiB (0%)
Default                                  : Yes
Forced                                   : No

Text #2
ID                                       : 4
Format                                   : UTF-8
Codec ID                                 : S_TEXT/UTF8
Codec ID/Info                            : UTF-8 Plain Text
Duration                                 : 23 min 32 s
Bit rate                                 : 40 b/s
Count of elements                        : 208
Stream size                              : 7.01 KiB (0%)
Default                                  : Yes
Forced                                   : No

Other Files in this Torrent
One Piece Season 14 Episode 892.mkv
beta
Anime DDL+NZB mirror
Current Time: 14/07/2024 20:07



About/FAQs

Discord