File Size1.104 GB (1,185,182,046 bytes)
DownloadClickNUpload
DownloadGG: Part1, Part2
KrakenFiles: Part1, Part2
MultiUp: Part1
  • BdUpload
  • DownAce
  • Fichier
  • FileCloud
  • Filerio
  • FilesCdn
  • IndiShare
  • Kbagi
  • Turbobit
  • UpToBox
  • Uppit
, Part2
  • BdUpload
  • DownAce
  • Fichier
  • FileCloud
  • Filerio
  • FilesCdn
  • IndiShare
  • Kbagi
  • Turbobit
  • UpToBox
  • Uppit
, Part3
  • BdUpload
  • DownAce
  • Fichier
  • FileCloud
  • Filerio
  • FilesCdn
  • IndiShare
  • Kbagi
  • Turbobit
  • UpToBox
  • Uppit

ZippyShare: Part1, Part2, Part3
HashesCRC32: B7B19CAD, MD5: 4BA07ABABEF62AD42E0339D35D5C610E, SHA1: 878D7FBC2A11D9071B8FF0B5541E7EFCCCCAF906, SHA256: 76B906ECC306B9FE75ED5AEAA56D63F818258D61A3AC2000DD7E766F39CD0BBF, ED2K: CAC50A3870612E5EA2084CAD4B0BE64F
Screenshots
screenshotscreenshotscreenshotscreenshotscreenshot
SubtitlesAll Attachments | und [SRT], und [SRT]
Additional Info
General
Unique ID                                : 291282923755843239902435510171525278739 (0xDB230CEE8D23448F648920D6528D6C13)
Complete name                            : One Piece Season 14 Episode 895.mkv
Format                                   : Matroska
Format version                           : Version 4
File size                                : 1.10 GiB
Duration                                 : 24 min 9 s
Overall bit rate                         : 6 543 kb/s
Encoded date                             : UTC 2023-01-18 05:38:32
Writing application                      : mkvmerge v71.1.0 ('Fortitude') 64-bit
Writing library                          : libebml v1.4.4 + libmatroska v1.7.1 / Lavf59.34.102

Video
ID                                       : 1
Format                                   : AVC
Format/Info                              : Advanced Video Codec
Format profile                           : High@L4
Format settings                          : CABAC / 3 Ref Frames
Format settings, CABAC                   : Yes
Format settings, Reference frames        : 3 frames
Codec ID                                 : V_MPEG4/ISO/AVC
Duration                                 : 24 min 9 s
Bit rate                                 : 6 284 kb/s
Width                                    : 1 920 pixels
Height                                   : 1 080 pixels
Display aspect ratio                     : 16:9
Frame rate mode                          : Variable
Frame rate                               : 23.855 FPS
Original frame rate                      : 23.976 (24000/1001) FPS
Color space                              : YUV
Chroma subsampling                       : 4:2:0
Bit depth                                : 8 bits
Scan type                                : Progressive
Bits/(Pixel*Frame)                       : 0.127
Stream size                              : 1.06 GiB (96%)
Default                                  : No
Forced                                   : No
Color range                              : Limited
Matrix coefficients                      : BT.709
VARIANT_BITRATE                          : 0

Audio
ID                                       : 2
Format                                   : AAC LC
Format/Info                              : Advanced Audio Codec Low Complexity
Codec ID                                 : A_AAC-2
Duration                                 : 24 min 9 s
Bit rate                                 : 256 kb/s
Channel(s)                               : 2 channels
Channel layout                           : L R
Sampling rate                            : 48.0 kHz
Frame rate                               : 46.875 FPS (1024 SPF)
Compression mode                         : Lossy
Stream size                              : 44.2 MiB (4%)
Language                                 : English
Default                                  : No
Forced                                   : No
ID3V2_PRIV.COM.APPLE.STREAMING.TRANSPORT : \x00\x00\x00\x00\x00\x0d\xac\xa0
VARIANT_BITRATE                          : 0

Text #1
ID                                       : 3
Format                                   : UTF-8
Codec ID                                 : S_TEXT/UTF8
Codec ID/Info                            : UTF-8 Plain Text
Duration                                 : 23 min 31 s
Bit rate                                 : 45 b/s
Count of elements                        : 224
Stream size                              : 7.85 KiB (0%)
Default                                  : Yes
Forced                                   : No

Text #2
ID                                       : 4
Format                                   : UTF-8
Codec ID                                 : S_TEXT/UTF8
Codec ID/Info                            : UTF-8 Plain Text
Duration                                 : 23 min 31 s
Bit rate                                 : 42 b/s
Count of elements                        : 215
Stream size                              : 7.34 KiB (0%)
Default                                  : Yes
Forced                                   : No

Other Files in this Torrent
One Piece Season 14 Episode 895.mkv
beta
Anime DDL+NZB mirror
Current Time: 14/07/2024 20:58



About/FAQs

Discord