File Size1.032 GB (1,108,123,528 bytes)
DownloadClickNUpload
DownloadGG: Part1, Part2
KrakenFiles: Part1, Part2
MultiUp: Part1
  • BdUpload
  • DownAce
  • Fichier
  • FileCloud
  • Filerio
  • FilesCdn
  • IndiShare
  • Kbagi
  • Turbobit
  • UpToBox
  • Uppit
, Part2
  • BdUpload
  • DownAce
  • Fichier
  • FileCloud
  • Filerio
  • FilesCdn
  • IndiShare
  • Kbagi
  • Turbobit
  • UpToBox
  • Uppit
, Part3
  • BdUpload
  • DownAce
  • Fichier
  • FileCloud
  • Filerio
  • FilesCdn
  • IndiShare
  • Kbagi
  • Turbobit
  • UpToBox
  • Uppit

ZippyShare: Part1, Part2, Part3
HashesCRC32: E2558BD3, MD5: F2BE76C8791439100B6A3DE0D94D6CA3, SHA1: 8C6ED13903C35F1D1798615BA1042CF7FCA5AA57, SHA256: E772FDAFE75665F79ADD11A35B5AE01EA1B3CDF9AC214914B1AA012EEAD40D56, ED2K: 5D715514D00181B451FC1D92F90597FF
Screenshots
screenshotscreenshotscreenshotscreenshotscreenshot
SubtitlesAll Attachments | und [SRT], und [SRT]
Additional Info
General
Unique ID                                : 281553867083716299949450387345511472286 (0xD3D14D674C562F47E78314DC5B1EDC9E)
Complete name                            : One Piece Season 14 Episode 902.mkv
Format                                   : Matroska
Format version                           : Version 4
File size                                : 1.03 GiB
Duration                                 : 24 min 9 s
Overall bit rate                         : 6 117 kb/s
Encoded date                             : UTC 2023-01-18 05:43:27
Writing application                      : mkvmerge v71.1.0 ('Fortitude') 64-bit
Writing library                          : libebml v1.4.4 + libmatroska v1.7.1 / Lavf59.34.102

Video
ID                                       : 1
Format                                   : AVC
Format/Info                              : Advanced Video Codec
Format profile                           : High@L4
Format settings                          : CABAC / 3 Ref Frames
Format settings, CABAC                   : Yes
Format settings, Reference frames        : 3 frames
Codec ID                                 : V_MPEG4/ISO/AVC
Duration                                 : 24 min 9 s
Bit rate                                 : 5 859 kb/s
Width                                    : 1 920 pixels
Height                                   : 1 080 pixels
Display aspect ratio                     : 16:9
Frame rate mode                          : Constant
Frame rate                               : 23.976 (23976/1000) FPS
Original frame rate                      : 23.976 (24000/1001) FPS
Color space                              : YUV
Chroma subsampling                       : 4:2:0
Bit depth                                : 8 bits
Scan type                                : Progressive
Bits/(Pixel*Frame)                       : 0.118
Stream size                              : 1 012 MiB (96%)
Default                                  : No
Forced                                   : No
Color range                              : Limited
Matrix coefficients                      : BT.709
VARIANT_BITRATE                          : 0

Audio
ID                                       : 2
Format                                   : AAC LC
Format/Info                              : Advanced Audio Codec Low Complexity
Codec ID                                 : A_AAC-2
Duration                                 : 24 min 9 s
Bit rate                                 : 256 kb/s
Channel(s)                               : 2 channels
Channel layout                           : L R
Sampling rate                            : 48.0 kHz
Frame rate                               : 46.875 FPS (1024 SPF)
Compression mode                         : Lossy
Stream size                              : 44.2 MiB (4%)
Language                                 : English
Default                                  : No
Forced                                   : No
ID3V2_PRIV.COM.APPLE.STREAMING.TRANSPORT : \x00\x00\x00\x00\x00\x0d\xac\xa0
VARIANT_BITRATE                          : 0

Text #1
ID                                       : 3
Format                                   : UTF-8
Codec ID                                 : S_TEXT/UTF8
Codec ID/Info                            : UTF-8 Plain Text
Duration                                 : 23 min 32 s
Bit rate                                 : 43 b/s
Count of elements                        : 237
Stream size                              : 7.48 KiB (0%)
Default                                  : Yes
Forced                                   : No

Text #2
ID                                       : 4
Format                                   : UTF-8
Codec ID                                 : S_TEXT/UTF8
Codec ID/Info                            : UTF-8 Plain Text
Duration                                 : 23 min 32 s
Bit rate                                 : 41 b/s
Count of elements                        : 235
Stream size                              : 7.18 KiB (0%)
Default                                  : Yes
Forced                                   : No

Other Files in this Torrent
One Piece Season 14 Episode 902.mkv
beta
Anime DDL+NZB mirror
Current Time: 14/07/2024 20:59



About/FAQs

Discord