File Size1.036 GB (1,112,739,466 bytes)
DownloadClickNUpload
DownloadGG: Part1, Part2
KrakenFiles: Part1, Part2
MultiUp: Part1
  • BdUpload
  • DownAce
  • Fichier
  • FileCloud
  • Filerio
  • FilesCdn
  • IndiShare
  • Kbagi
  • Turbobit
  • UpToBox
  • Uppit
, Part2
  • BdUpload
  • DownAce
  • Fichier
  • FileCloud
  • Filerio
  • FilesCdn
  • IndiShare
  • Kbagi
  • Turbobit
  • UpToBox
  • Uppit
, Part3
  • BdUpload
  • DownAce
  • Fichier
  • FileCloud
  • Filerio
  • FilesCdn
  • IndiShare
  • Kbagi
  • Turbobit
  • UpToBox
  • Uppit

ZippyShare: Part1, Part2, Part3
HashesCRC32: 594E501B, MD5: 86F769416BE6A0587959169871FFBEE2, SHA1: DCCB0B6DD94AE32F97BA4771A90F2FC777630122, SHA256: FF69CC6DF7448D785E45E43BEA81DFC60C0B275A73FE3E7B06A671F2369CE6C6, ED2K: 2E6345E5E3503105F82AAA3C4F9AAFD5
Screenshots
screenshotscreenshotscreenshotscreenshotscreenshot
SubtitlesAll Attachments | und [SRT], und [SRT]
Additional Info
General
Unique ID                                : 16100896806595875498309549831609040886 (0xC1CEB8079BD103EA1605B91B9BEBFF6)
Complete name                            : One Piece Season 14 Episode 894.mkv
Format                                   : Matroska
Format version                           : Version 4
File size                                : 1.04 GiB
Duration                                 : 24 min 9 s
Overall bit rate                         : 6 143 kb/s
Encoded date                             : UTC 2023-01-18 05:37:42
Writing application                      : mkvmerge v71.1.0 ('Fortitude') 64-bit
Writing library                          : libebml v1.4.4 + libmatroska v1.7.1 / Lavf59.34.102

Video
ID                                       : 1
Format                                   : AVC
Format/Info                              : Advanced Video Codec
Format profile                           : High@L4
Format settings                          : CABAC / 3 Ref Frames
Format settings, CABAC                   : Yes
Format settings, Reference frames        : 3 frames
Codec ID                                 : V_MPEG4/ISO/AVC
Duration                                 : 24 min 8 s
Bit rate                                 : 5 886 kb/s
Width                                    : 1 920 pixels
Height                                   : 1 080 pixels
Display aspect ratio                     : 16:9
Frame rate mode                          : Variable
Frame rate                               : 23.928 FPS
Original frame rate                      : 23.976 (24000/1001) FPS
Color space                              : YUV
Chroma subsampling                       : 4:2:0
Bit depth                                : 8 bits
Scan type                                : Progressive
Bits/(Pixel*Frame)                       : 0.119
Stream size                              : 1 017 MiB (96%)
Default                                  : No
Forced                                   : No
Color range                              : Limited
Matrix coefficients                      : BT.709
VARIANT_BITRATE                          : 0

Audio
ID                                       : 2
Format                                   : AAC LC
Format/Info                              : Advanced Audio Codec Low Complexity
Codec ID                                 : A_AAC-2
Duration                                 : 24 min 9 s
Bit rate                                 : 255 kb/s
Channel(s)                               : 2 channels
Channel layout                           : L R
Sampling rate                            : 48.0 kHz
Frame rate                               : 46.875 FPS (1024 SPF)
Compression mode                         : Lossy
Stream size                              : 44.0 MiB (4%)
Language                                 : English
Default                                  : No
Forced                                   : No
ID3V2_PRIV.COM.APPLE.STREAMING.TRANSPORT : \x00\x00\x00\x00\x00\x0d\xac\xa0
VARIANT_BITRATE                          : 0

Text #1
ID                                       : 3
Format                                   : UTF-8
Codec ID                                 : S_TEXT/UTF8
Codec ID/Info                            : UTF-8 Plain Text
Duration                                 : 23 min 33 s
Bit rate                                 : 45 b/s
Count of elements                        : 248
Stream size                              : 7.83 KiB (0%)
Default                                  : Yes
Forced                                   : No

Text #2
ID                                       : 4
Format                                   : UTF-8
Codec ID                                 : S_TEXT/UTF8
Codec ID/Info                            : UTF-8 Plain Text
Duration                                 : 23 min 30 s
Bit rate                                 : 43 b/s
Count of elements                        : 236
Stream size                              : 7.46 KiB (0%)
Default                                  : Yes
Forced                                   : No

Other Files in this Torrent
One Piece Season 14 Episode 894.mkv
beta
Anime DDL+NZB mirror
Current Time: 14/07/2024 19:17



About/FAQs

Discord