[NoobSubs] One-Punch Man OAD 02 (720p Blu-ray 8bit AAC).mp4


File Size125.0 MB (131,084,058 bytes)
DownloadGo4Up | Jheberg | MultiUp
  • ClickNupload
  • Fichier
  • Filerio
  • Free
  • Fufox
  • HugeFiles
  • Mightyupload
  • ToutBox
  • Turbobit
  • UpToBox
  • Uplea
  • UploadBaz
  • Uploadable
  • Uploaded
  • Uppit
  • Userscloud
  • ZippyShare
| OpenLoad | Sendspace | SolidFiles | UsersCloud
HashesCRC32: 1CB87690, MD5: 82D818E42902EF6F03753A7578283C1E, SHA1: 35A1ED907B1C4C415EC77C9B8E27D6FF1DC087F6, SHA256: 031DBC349789B459B5BA5B8A6EA447C5D8FDF073D993F1707D60C9F487AC3B35, ED2K: 788637B76370EF0088A24138975DF258
Screenshots
screenshotscreenshotscreenshotscreenshotscreenshot
Additional Info
General
Complete name                            : [NoobSubs] One-Punch Man OAD 02 (720p Blu-ray 8bit AAC).mp4
Format                                   : MPEG-4
Format profile                           : Base Media
Codec ID                                 : isom (isom/avc1)
File size                                : 125 MiB
Duration                                 : 11 min 40 s
Overall bit rate mode                    : Variable
Overall bit rate                         : 1 498 kb/s
Movie name                               : [NoobSubs] One-Punch Man OAD 02 (720p Blu-ray 8bit AAC)
Album                                    : One-Punch Man OAD
Track name/Position                      : 2
Track name/Total                         : 6
Performer                                : Subs: [SallySubs]
Encoded date                             : UTC 2016-11-30 10:57:00
Tagged date                              : UTC 2016-11-30 16:10:22
replaygain_track_gain                    : +1.47 dB
replaygain_track_minmax                  : 96,179
replaygain_track_peak                    : 0.790000

Video
ID                                       : 1
Format                                   : AVC
Format/Info                              : Advanced Video Codec
Format profile                           : High@L4
Format settings, CABAC                   : Yes
Format settings, ReFrames                : 6 frames
Codec ID                                 : avc1
Codec ID/Info                            : Advanced Video Coding
Duration                                 : 11 min 39 s
Bit rate                                 : 1 251 kb/s
Maximum bit rate                         : 11.2 Mb/s
Width                                    : 1 280 pixels
Height                                   : 720 pixels
Display aspect ratio                     : 16:9
Frame rate mode                          : Constant
Frame rate                               : 23.976 (24000/1001) FPS
Color space                              : YUV
Chroma subsampling                       : 4:2:0
Bit depth                                : 8 bits
Scan type                                : Progressive
Bits/(Pixel*Frame)                       : 0.057
Stream size                              : 104 MiB (83%)
Title                                    : 264@GPAC0.6.2-DEV-rev681-g32e98cd-master
Writing library                          : x264 core 148 r2721 72d53ab
Encoding settings                        : cabac=1 / ref=6 / deblock=1:1:1 / analyse=0x3:0x133 / me=umh / subme=10 / psy=1 / psy_rd=0.40:0.00 / mixed_ref=1 / me_range=24 / chroma_me=1 / trellis=2 / 8x8dct=1 / cqm=0 / deadzone=21,11 / fast_pskip=1 / chroma_qp_offset=-2 / threads=12 / lookahead_threads=2 / sliced_threads=0 / nr=0 / decimate=1 / interlaced=0 / bluray_compat=0 / constrained_intra=0 / bframes=7 / b_pyramid=2 / b_adapt=2 / b_bias=0 / direct=3 / weightb=1 / open_gop=0 / weightp=2 / keyint=250 / keyint_min=23 / scenecut=40 / intra_refresh=0 / rc_lookahead=60 / rc=crf / mbtree=1 / crf=17.3 / qcomp=0.60 / qpmin=0 / qpmax=69 / qpstep=4 / ip_ratio=1.40 / aq=1:1.40
Encoded date                             : UTC 2016-11-30 10:57:00
Tagged date                              : UTC 2016-11-30 10:57:01

Audio
ID                                       : 2
Format                                   : AAC
Format/Info                              : Advanced Audio Codec
Format profile                           : LC
Codec ID                                 : 40
Duration                                 : 11 min 40 s
Bit rate mode                            : Variable
Bit rate                                 : 244 kb/s
Maximum bit rate                         : 290 kb/s
Channel(s)                               : 2 channels
Channel positions                        : Front: L R
Sampling rate                            : 48.0 kHz
Frame rate                               : 46.875 FPS (1024 spf)
Compression mode                         : Lossy
Stream size                              : 20.3 MiB (16%)
Encoded date                             : UTC 2016-11-30 10:56:43
Tagged date                              : UTC 2016-11-30 10:57:01

Other Files in this Torrent
[NoobSubs] One-Punch Man OAD 02 (720p Blu-ray 8bit AAC).mp4
beta
Anime DDL+NZB mirror
Current Time: 28/11/2021 04:50



About/FAQs

Discord