File Size443.6 MB (465,191,819 bytes)
DownloadGo4Up | Jheberg | MultiUp
  • ClickNupload
  • Fichier
  • Filerio
  • Free
  • Fufox
  • HugeFiles
  • Mightyupload
  • ToutBox
  • Turbobit
  • UpToBox
  • Uplea
  • UploadBaz
  • Uploadable
  • Uploaded
  • Uppit
  • Userscloud
| OpenLoad | SolidFiles | UsersCloud
Sendspace: Part1, Part2
HashesCRC32: FBACEE12, MD5: 382B90746DD4285C6310FDD0B1A3ADD3, SHA1: 2DD287F8B8D925EBD4159A85AE974D83F1F0904F, SHA256: 3891321E395956D06860D1F66C8993166996BD6B0FB89CFEEE59D8FBE5221EB7, ED2K: A7353EA413A409E5ADA77D67099F8038
Screenshots
screenshotscreenshotscreenshotscreenshotscreenshot
Additional Info
General
Complete name                            : [NoobSubs] One-Punch Man 12 (720p Blu-ray 8bit AAC).mp4
Format                                   : MPEG-4
Format profile                           : Base Media
Codec ID                                 : isom (isom/avc1)
File size                                : 444 MiB
Duration                                 : 24 min 1 s
Overall bit rate mode                    : Variable
Overall bit rate                         : 2 582 kb/s
Movie name                               : [NoobSubs] One-Punch Man 12 (720p Blu-ray 8bit AAC)
Album                                    : One-Punch Man
Track name/Position                      : 12
Track name/Total                         : 12
Performer                                : Subs: [SallySubs]
Encoded date                             : UTC 2016-11-30 10:27:01
Tagged date                              : UTC 2016-11-30 16:09:35
replaygain_track_gain                    : +0.65 dB
replaygain_track_minmax                  : 92,181
replaygain_track_peak                    : 0.850000
replaygain_undo                          : 1,1

Video
ID                                       : 1
Format                                   : AVC
Format/Info                              : Advanced Video Codec
Format profile                           : High@L4
Format settings, CABAC                   : Yes
Format settings, ReFrames                : 6 frames
Codec ID                                 : avc1
Codec ID/Info                            : Advanced Video Coding
Duration                                 : 24 min 1 s
Bit rate                                 : 2 340 kb/s
Maximum bit rate                         : 9 803 kb/s
Width                                    : 1 280 pixels
Height                                   : 720 pixels
Display aspect ratio                     : 16:9
Frame rate mode                          : Constant
Frame rate                               : 23.976 (24000/1001) FPS
Color space                              : YUV
Chroma subsampling                       : 4:2:0
Bit depth                                : 8 bits
Scan type                                : Progressive
Bits/(Pixel*Frame)                       : 0.106
Stream size                              : 402 MiB (91%)
Title                                    : 264@GPAC0.6.2-DEV-rev681-g32e98cd-master
Writing library                          : x264 core 148 r2721 72d53ab
Encoding settings                        : cabac=1 / ref=6 / deblock=1:1:1 / analyse=0x3:0x133 / me=umh / subme=10 / psy=1 / psy_rd=0.40:0.00 / mixed_ref=1 / me_range=24 / chroma_me=1 / trellis=2 / 8x8dct=1 / cqm=0 / deadzone=21,11 / fast_pskip=1 / chroma_qp_offset=-2 / threads=12 / lookahead_threads=2 / sliced_threads=0 / nr=0 / decimate=1 / interlaced=0 / bluray_compat=0 / constrained_intra=0 / bframes=7 / b_pyramid=2 / b_adapt=2 / b_bias=0 / direct=3 / weightb=1 / open_gop=0 / weightp=2 / keyint=250 / keyint_min=23 / scenecut=40 / intra_refresh=0 / rc_lookahead=60 / rc=crf / mbtree=1 / crf=17.3 / qcomp=0.60 / qpmin=0 / qpmax=69 / qpstep=4 / ip_ratio=1.40 / aq=1:1.40
Encoded date                             : UTC 2016-11-30 10:27:01
Tagged date                              : UTC 2016-11-30 10:27:05

Audio
ID                                       : 2
Format                                   : AAC
Format/Info                              : Advanced Audio Codec
Format profile                           : LC
Codec ID                                 : 40
Duration                                 : 24 min 1 s
Bit rate mode                            : Variable
Bit rate                                 : 239 kb/s
Maximum bit rate                         : 292 kb/s
Channel(s)                               : 2 channels
Channel positions                        : Front: L R
Sampling rate                            : 48.0 kHz
Frame rate                               : 46.875 FPS (1024 spf)
Compression mode                         : Lossy
Stream size                              : 41.0 MiB (9%)
Encoded date                             : UTC 2016-11-30 10:26:27
Tagged date                              : UTC 2016-11-30 10:27:05

Other Files in this Torrent
[NoobSubs] One-Punch Man 12 (720p Blu-ray 8bit AAC).mp4
beta
Anime DDL+NZB mirror
Current Time: 09/12/2021 01:31



About/FAQs

Discord