[NoobSubs] One-Punch Man OAD 01 (720p Blu-ray 8bit AAC).mp4


File Size133.0 MB (139,484,957 bytes)
DownloadGo4Up | Jheberg | MultiUp
  • ClickNupload
  • Fichier
  • Filerio
  • Free
  • Fufox
  • HugeFiles
  • Mightyupload
  • ToutBox
  • Turbobit
  • UpToBox
  • Uplea
  • UploadBaz
  • Uploadable
  • Uploaded
  • Uppit
  • Userscloud
  • ZippyShare
| OpenLoad | Sendspace | SolidFiles | UsersCloud
HashesCRC32: C1FB1DD3, MD5: 564F1032D452001D6A93582C3736AF71, SHA1: 7739E99554B0DD32764EC71111608248E2629DB7, SHA256: E91DF74AB3B693486F7780C8DE149E36A22EE8F31110B69D93F77DC4919C1D90, ED2K: D0A76C59A51E045B149E78B83E8E2BFC
Screenshots
screenshotscreenshotscreenshotscreenshotscreenshot
Additional Info
General
Complete name                            : [NoobSubs] One-Punch Man OAD 01 (720p Blu-ray 8bit AAC).mp4
Format                                   : MPEG-4
Format profile                           : Base Media
Codec ID                                 : isom (isom/avc1)
File size                                : 133 MiB
Duration                                 : 12 min 30 s
Overall bit rate mode                    : Variable
Overall bit rate                         : 1 488 kb/s
Movie name                               : [NoobSubs] One-Punch Man OAD 01 (720p Blu-ray 8bit AAC)
Album                                    : One-Punch Man OAD
Track name/Position                      : 1
Track name/Total                         : 6
Performer                                : Subs: [SallySubs]
Encoded date                             : UTC 2016-11-30 10:44:55
Tagged date                              : UTC 2016-11-30 16:10:10
replaygain_track_gain                    : +1.18 dB
replaygain_track_minmax                  : 99,177
replaygain_track_peak                    : 1.080000
replaygain_undo                          : -1,-1

Video
ID                                       : 1
Format                                   : AVC
Format/Info                              : Advanced Video Codec
Format profile                           : High@L4
Format settings, CABAC                   : Yes
Format settings, ReFrames                : 6 frames
Codec ID                                 : avc1
Codec ID/Info                            : Advanced Video Coding
Duration                                 : 12 min 29 s
Bit rate                                 : 1 237 kb/s
Maximum bit rate                         : 7 524 kb/s
Width                                    : 1 280 pixels
Height                                   : 720 pixels
Display aspect ratio                     : 16:9
Frame rate mode                          : Constant
Frame rate                               : 23.976 (24000/1001) FPS
Color space                              : YUV
Chroma subsampling                       : 4:2:0
Bit depth                                : 8 bits
Scan type                                : Progressive
Bits/(Pixel*Frame)                       : 0.056
Stream size                              : 111 MiB (83%)
Title                                    : 264@GPAC0.6.2-DEV-rev681-g32e98cd-master
Writing library                          : x264 core 148 r2721 72d53ab
Encoding settings                        : cabac=1 / ref=6 / deblock=1:1:1 / analyse=0x3:0x133 / me=umh / subme=10 / psy=1 / psy_rd=0.40:0.00 / mixed_ref=1 / me_range=24 / chroma_me=1 / trellis=2 / 8x8dct=1 / cqm=0 / deadzone=21,11 / fast_pskip=1 / chroma_qp_offset=-2 / threads=12 / lookahead_threads=2 / sliced_threads=0 / nr=0 / decimate=1 / interlaced=0 / bluray_compat=0 / constrained_intra=0 / bframes=7 / b_pyramid=2 / b_adapt=2 / b_bias=0 / direct=3 / weightb=1 / open_gop=0 / weightp=2 / keyint=250 / keyint_min=23 / scenecut=40 / intra_refresh=0 / rc_lookahead=60 / rc=crf / mbtree=1 / crf=17.3 / qcomp=0.60 / qpmin=0 / qpmax=69 / qpstep=4 / ip_ratio=1.40 / aq=1:1.40
Encoded date                             : UTC 2016-11-30 10:44:55
Tagged date                              : UTC 2016-11-30 10:44:56

Audio
ID                                       : 2
Format                                   : AAC
Format/Info                              : Advanced Audio Codec
Format profile                           : LC
Codec ID                                 : 40
Duration                                 : 12 min 30 s
Bit rate mode                            : Variable
Bit rate                                 : 247 kb/s
Maximum bit rate                         : 288 kb/s
Channel(s)                               : 2 channels
Channel positions                        : Front: L R
Sampling rate                            : 48.0 kHz
Frame rate                               : 46.875 FPS (1024 spf)
Compression mode                         : Lossy
Stream size                              : 22.1 MiB (17%)
Encoded date                             : UTC 2016-11-30 10:44:37
Tagged date                              : UTC 2016-11-30 10:44:56

Other Files in this Torrent
[NoobSubs] One-Punch Man OAD 01 (720p Blu-ray 8bit AAC).mp4
beta
Anime DDL+NZB mirror
Current Time: 09/08/2022 04:22



About/FAQs

Discord