File Size353.0 MB (370,110,475 bytes)
DownloadGo4Up | Jheberg | MultiUp
  • ClickNupload
  • Fichier
  • Filerio
  • Free
  • Fufox
  • HugeFiles
  • Mightyupload
  • ToutBox
  • Turbobit
  • UpToBox
  • Uplea
  • UploadBaz
  • Uploadable
  • Uploaded
  • Uppit
  • Userscloud
| OpenLoad | SolidFiles | UsersCloud
Sendspace: Part1, Part2
HashesCRC32: 642FF212, MD5: 88962A7AD4F0F26D53675467984E5577, SHA1: C106BB5F5736970B216059DCD1D5BC7D522F398A, SHA256: 75AB365BA15B135FEA1B2EE1B24CE0EC7EADED4DEC196FE6E88A1640A6C98B95, ED2K: 095FA52F8892C40213DA3F05649626FA
Screenshots
screenshotscreenshotscreenshotscreenshotscreenshot
Additional Info
General
Complete name                            : [NoobSubs] One-Punch Man 05 (720p Blu-ray 8bit AAC).mp4
Format                                   : MPEG-4
Format profile                           : Base Media
Codec ID                                 : isom (isom/avc1)
File size                                : 353 MiB
Duration                                 : 24 min 21 s
Overall bit rate mode                    : Variable
Overall bit rate                         : 2 026 kb/s
Movie name                               : [NoobSubs] One-Punch Man 05 (720p Blu-ray 8bit AAC)
Album                                    : One-Punch Man
Track name/Position                      : 5
Track name/Total                         : 12
Performer                                : Subs: [SallySubs]
Encoded date                             : UTC 2016-11-30 06:01:42
Tagged date                              : UTC 2016-11-30 16:04:43
replaygain_track_gain                    : +1.23 dB
replaygain_track_minmax                  : 98,185
replaygain_track_peak                    : 1.020000

Video
ID                                       : 1
Format                                   : AVC
Format/Info                              : Advanced Video Codec
Format profile                           : High@L4
Format settings, CABAC                   : Yes
Format settings, ReFrames                : 6 frames
Codec ID                                 : avc1
Codec ID/Info                            : Advanced Video Coding
Duration                                 : 24 min 21 s
Bit rate                                 : 1 783 kb/s
Maximum bit rate                         : 10.8 Mb/s
Width                                    : 1 280 pixels
Height                                   : 720 pixels
Display aspect ratio                     : 16:9
Frame rate mode                          : Constant
Frame rate                               : 23.976 (24000/1001) FPS
Color space                              : YUV
Chroma subsampling                       : 4:2:0
Bit depth                                : 8 bits
Scan type                                : Progressive
Bits/(Pixel*Frame)                       : 0.081
Stream size                              : 311 MiB (88%)
Title                                    : 264@GPAC0.6.2-DEV-rev681-g32e98cd-master
Writing library                          : x264 core 148 r2721 72d53ab
Encoding settings                        : cabac=1 / ref=6 / deblock=1:1:1 / analyse=0x3:0x133 / me=umh / subme=10 / psy=1 / psy_rd=0.40:0.00 / mixed_ref=1 / me_range=24 / chroma_me=1 / trellis=2 / 8x8dct=1 / cqm=0 / deadzone=21,11 / fast_pskip=1 / chroma_qp_offset=-2 / threads=12 / lookahead_threads=2 / sliced_threads=0 / nr=0 / decimate=1 / interlaced=0 / bluray_compat=0 / constrained_intra=0 / bframes=7 / b_pyramid=2 / b_adapt=2 / b_bias=0 / direct=3 / weightb=1 / open_gop=0 / weightp=2 / keyint=250 / keyint_min=23 / scenecut=40 / intra_refresh=0 / rc_lookahead=60 / rc=crf / mbtree=1 / crf=17.3 / qcomp=0.60 / qpmin=0 / qpmax=69 / qpstep=4 / ip_ratio=1.40 / aq=1:1.40
Encoded date                             : UTC 2016-11-30 06:01:42
Tagged date                              : UTC 2016-11-30 06:01:46

Audio
ID                                       : 2
Format                                   : AAC
Format/Info                              : Advanced Audio Codec
Format profile                           : LC
Codec ID                                 : 40
Duration                                 : 24 min 21 s
Bit rate mode                            : Variable
Bit rate                                 : 240 kb/s
Maximum bit rate                         : 296 kb/s
Channel(s)                               : 2 channels
Channel positions                        : Front: L R
Sampling rate                            : 48.0 kHz
Frame rate                               : 46.875 FPS (1024 spf)
Compression mode                         : Lossy
Stream size                              : 41.7 MiB (12%)
Encoded date                             : UTC 2016-11-30 06:01:02
Tagged date                              : UTC 2016-11-30 06:01:46

Other Files in this Torrent
[NoobSubs] One-Punch Man 05 (720p Blu-ray 8bit AAC).mp4
beta
Anime DDL+NZB mirror
Current Time: 28/11/2021 05:52



About/FAQs

Discord