[NoobSubs] Mob Psycho 100 05 (720p Blu-ray Dual Audio 8bit AAC)[07A20AF9].mkv


File Size438.0 MB (459,247,705 bytes)
DownloadClickNUpload | Go4Up
  • DownAce
  • FileFactory
  • KatFile
  • Oboom
  • OwnDrives
  • Share-Online
  • SolidFiles
  • TusFiles
  • Uppit
  • UsersCloud
| Jheberg | MultiUp | OpenLoad | ZippyShare
Sendspace: Part1, Part2
HashesCRC32: 07A20AF9, MD5: D7B5BA0E6FC125DEC1865590E47D77DA, SHA1: 7D5D5880141BCFF3B2F6BD57F995103C41B84C13, SHA256: 21335A6BDCF3B6DA62BF9CB2EE840991E888A7FFB66C01E782C4C98AED7057F4, ED2K: 71E433B1FEE060E357E43107E5F1B771
Screenshots
screenshotscreenshotscreenshotscreenshotscreenshot
SubtitlesAll Attachments | Signs/Karaoke [Glue] - [kBaraka] [zxx, ASS], [Glue] - [kBaraka] [eng, ASS]
Additional Info
General
Unique ID                                : 318720750055174569940754022031664883624 (0xEFC762366B7FBAD88B846862310427A8)
Complete name                            : [NoobSubs] Mob Psycho 100 05 (720p Blu-ray Dual Audio 8bit AAC)[07A20AF9].mkv
Format                                   : Matroska
Format version                           : Version 4
File size                                : 438 MiB
Duration                                 : 24 min 12 s
Overall bit rate                         : 2 530 kb/s
Movie name                               : [Akatomba-kBaraka] Mob Psycho 100 - 05 (BD 1920x1080 x264 FLAC) [E75C1D87] / [NoobSubs] Mob Psycho 100 05 (720p Blu-ray Dual Audio 8bit AAC)
Track name/Position                      : 5
Track name/Total                         : 12
Encoded date                             : UTC 2019-03-03 00:54:07
Writing application                      : mkvmerge v31.0.0 ('Dolores In A Shoestand') 64-bit
Writing library                          : libebml v1.3.6 + libmatroska v1.4.9
Attachments                              : Aero Matics Bold.ttf / ARCENA.ttf / CONSTANB.TTF / disco.ttf / Montara-Gothic.ttf / Montara-Italic_0.ttf / Oregano-Regular.ttf / Psycho Numbers.ttf / RaysHand Regular.ttf
ARTIST                                   : Subs: [Glue] - [kBaraka]

Video
ID                                       : 1
Format                                   : AVC
Format/Info                              : Advanced Video Codec
Format profile                           : High@L4
Format settings                          : CABAC / 6 Ref Frames
Format settings, CABAC                   : Yes
Format settings, ReFrames                : 6 frames
Codec ID                                 : V_MPEG4/ISO/AVC
Duration                                 : 24 min 12 s
Bit rate                                 : 1 964 kb/s
Width                                    : 1 280 pixels
Height                                   : 720 pixels
Display aspect ratio                     : 16:9
Frame rate mode                          : Constant
Frame rate                               : 23.976 (24000/1001) FPS
Color space                              : YUV
Chroma subsampling                       : 4:2:0
Bit depth                                : 8 bits
Scan type                                : Progressive
Bits/(Pixel*Frame)                       : 0.089
Stream size                              : 340 MiB (78%)
Writing library                          : x264 core 157 r2935 545de2f
Encoding settings                        : cabac=1 / ref=6 / deblock=1:0:0 / analyse=0x3:0x133 / me=umh / subme=10 / psy=1 / psy_rd=1.00:0.00 / mixed_ref=1 / me_range=24 / chroma_me=1 / trellis=2 / 8x8dct=1 / cqm=0 / deadzone=21,11 / fast_pskip=1 / chroma_qp_offset=-2 / threads=12 / lookahead_threads=2 / sliced_threads=0 / nr=0 / decimate=1 / interlaced=0 / bluray_compat=0 / constrained_intra=0 / bframes=7 / b_pyramid=2 / b_adapt=2 / b_bias=0 / direct=3 / weightb=1 / open_gop=0 / weightp=2 / keyint=250 / keyint_min=23 / scenecut=40 / intra_refresh=0 / rc_lookahead=60 / rc=crf / mbtree=1 / crf=17.3 / qcomp=0.60 / qpmin=0 / qpmax=69 / qpstep=4 / ip_ratio=1.40 / aq=1:1.10
Default                                  : Yes
Forced                                   : No

Audio #1
ID                                       : 4
Format                                   : AAC LC
Format/Info                              : Advanced Audio Codec Low Complexity
Codec ID                                 : A_AAC-2
Duration                                 : 24 min 11 s
Bit rate                                 : 270 kb/s
Channel(s)                               : 2 channels
Channel layout                           : L R
Sampling rate                            : 48.0 kHz
Frame rate                               : 46.875 FPS (1024 SPF)
Compression mode                         : Lossy
Delay relative to video                  : 9 ms
Stream size                              : 46.8 MiB (11%)
Title                                    : English 2.0 channel AAC
Language                                 : English
Default                                  : Yes
Forced                                   : No

Audio #2
ID                                       : 5
Format                                   : AAC LC
Format/Info                              : Advanced Audio Codec Low Complexity
Codec ID                                 : A_AAC-2
Duration                                 : 24 min 12 s
Bit rate                                 : 288 kb/s
Channel(s)                               : 2 channels
Channel layout                           : L R
Sampling rate                            : 48.0 kHz
Frame rate                               : 46.875 FPS (1024 SPF)
Compression mode                         : Lossy
Delay relative to video                  : 9 ms
Stream size                              : 49.6 MiB (11%)
Title                                    : Japanese 2.0 channel AAC
Language                                 : Japanese
Default                                  : No
Forced                                   : No

Text #1
ID                                       : 2
Format                                   : ASS
Codec ID                                 : S_TEXT/ASS
Codec ID/Info                            : Advanced Sub Station Alpha
Bit rate                                 : 0 b/s
Count of elements                        : 0
Compression mode                         : Lossless
Stream size                              : 0.00 Byte (0%)
Title                                    : Signs/Karaoke [Glue] - [kBaraka]
Language                                 : zxx
Default                                  : Yes
Forced                                   : No

Text #2
ID                                       : 3
Format                                   : ASS
Codec ID                                 : S_TEXT/ASS
Codec ID/Info                            : Advanced Sub Station Alpha
Duration                                 : 24 min 6 s
Bit rate                                 : 119 b/s
Count of elements                        : 361
Compression mode                         : Lossless
Stream size                              : 21.1 KiB (0%)
Title                                    : [Glue] - [kBaraka]
Language                                 : English
Default                                  : No
Forced                                   : No

Menu
00:00:00.000                             : Prologue
00:00:42.042                             : Opening
00:02:12.006                             : Part A
00:10:23.039                             : Part B
00:22:25.052                             : Ending
00:23:55.016                             : Preview

Other Files in this Torrent
[NoobSubs] Mob Psycho 100 05 (720p Blu-ray Dual Audio 8bit AAC)[07A20AF9].mkv
beta
Anime DDL+NZB mirror
Current Time: 26/09/2020 04:39



About/FAQs