Extras/[NoobSubs] Mob Psycho 100 PV01 (720p Blu-ray 8bit AAC).mp4


File Size58.72 MB (61,574,847 bytes)
DownloadClickNUpload | Go4Up
  • DownAce
  • FileFactory
  • KatFile
  • Oboom
  • OwnDrives
  • Share-Online
  • SolidFiles
  • TusFiles
  • Uppit
  • UsersCloud
| Jheberg | MultiUp | OpenLoad | Sendspace | ZippyShare
HashesCRC32: FA49E475, MD5: 897FFBC46AECDEC4AAC986EA97B1B3BE, SHA1: 70E59DCEBA2F5F64A89D7793920FDA91EA20A86E, SHA256: DD72E0B2E31D0FD972307530748D5ACECD0500A75C1374C74EB4A20A55E40C39, ED2K: 8CB84DEAB61A4A621E020E506A8F587C
Screenshots
screenshot
Additional Info
General
Complete name                            : [NoobSubs] Mob Psycho 100 PV01 (720p Blu-ray 8bit AAC).mp4
Format                                   : MPEG-4
Format profile                           : Base Media
Codec ID                                 : isom (isom/avc1)
File size                                : 58.7 MiB
Duration                                 : 1 min 26 s
Overall bit rate mode                    : Variable
Overall bit rate                         : 5 701 kb/s
Movie name                               : [NoobSubs] Mob Psycho 100 PV01 (720p Blu-ray 8bit AAC)
Album                                    : Mob Psycho 100
Track name/Position                      : 1
Track name/Total                         : 3
Performer                                : Subs: None
Encoded date                             : UTC 2019-03-03 04:46:32
Tagged date                              : UTC 2019-03-03 14:23:34
replaygain_undo                          : -3,-3
replaygain_track_peak                    : 0.400000
replaygain_track_minmax                  : 107,179
replaygain_track_gain                    : +0.41 dB

Video
ID                                       : 1
Format                                   : AVC
Format/Info                              : Advanced Video Codec
Format profile                           : High@L4
Format settings                          : CABAC / 6 Ref Frames
Format settings, CABAC                   : Yes
Format settings, ReFrames                : 6 frames
Codec ID                                 : avc1
Codec ID/Info                            : Advanced Video Coding
Duration                                 : 1 min 26 s
Bit rate                                 : 5 435 kb/s
Maximum bit rate                         : 21.1 Mb/s
Width                                    : 1 280 pixels
Height                                   : 720 pixels
Display aspect ratio                     : 16:9
Frame rate mode                          : Constant
Frame rate                               : 23.976 (24000/1001) FPS
Color space                              : YUV
Chroma subsampling                       : 4:2:0
Bit depth                                : 8 bits
Scan type                                : Progressive
Bits/(Pixel*Frame)                       : 0.246
Stream size                              : 55.9 MiB (95%)
Title                                    : 264@GPAC0.7.0-rev0-gbd5c9af-master
Writing library                          : x264 core 157 r2935 545de2f
Encoding settings                        : cabac=1 / ref=6 / deblock=1:0:0 / analyse=0x3:0x133 / me=umh / subme=10 / psy=1 / psy_rd=1.00:0.00 / mixed_ref=1 / me_range=24 / chroma_me=1 / trellis=2 / 8x8dct=1 / cqm=0 / deadzone=21,11 / fast_pskip=1 / chroma_qp_offset=-2 / threads=12 / lookahead_threads=2 / sliced_threads=0 / nr=0 / decimate=1 / interlaced=0 / bluray_compat=0 / constrained_intra=0 / bframes=7 / b_pyramid=2 / b_adapt=2 / b_bias=0 / direct=3 / weightb=1 / open_gop=0 / weightp=2 / keyint=250 / keyint_min=23 / scenecut=40 / intra_refresh=0 / rc_lookahead=60 / rc=crf / mbtree=1 / crf=17.3 / qcomp=0.60 / qpmin=0 / qpmax=69 / qpstep=4 / ip_ratio=1.40 / aq=1:1.10
Encoded date                             : UTC 2019-03-03 04:46:32
Tagged date                              : UTC 2019-03-03 04:46:33
Codec configuration box                  : avcC

Audio
ID                                       : 2
Format                                   : AAC LC
Format/Info                              : Advanced Audio Codec Low Complexity
Codec ID                                 : mp4a-40-2
Duration                                 : 1 min 26 s
Bit rate mode                            : Variable
Bit rate                                 : 265 kb/s
Maximum bit rate                         : 294 kb/s
Channel(s)                               : 2 channels
Channel layout                           : L R
Sampling rate                            : 48.0 kHz
Frame rate                               : 46.875 FPS (1024 SPF)
Compression mode                         : Lossy
Stream size                              : 2.74 MiB (5%)
Encoded date                             : UTC 2019-03-03 04:46:30
Tagged date                              : UTC 2019-03-03 04:46:33

Other Files in this Torrent
Extras/[NoobSubs] Mob Psycho 100 PV01 (720p Blu-ray 8bit AAC).mp4
beta
Anime DDL+NZB mirror
Current Time: 08/08/2020 11:10



About/FAQs