[NoobSubs] Mob Psycho 100 12 (720p Blu-ray Dual Audio 8bit AAC)[53DB2C2B].mkv


File Size534.1 MB (560,070,295 bytes)
DownloadClickNUpload | Go4Up
  • DownAce
  • FileFactory
  • KatFile
  • Oboom
  • OwnDrives
  • Share-Online
  • SolidFiles
  • TusFiles
  • Uppit
  • UsersCloud
| Jheberg | OpenLoad
MultiUp: Part1, Part2
Sendspace: Part1, Part2
ZippyShare: Part1, Part2
HashesCRC32: 53DB2C2B, MD5: F934C1ECB5DA3217F64D5B5764BF76DA, SHA1: 2C731431E085AF4E25C67E483D4DCEB5D87AA4A6, SHA256: 6D96E16E5FB8B3B3F5D625EED9027B5E738C79300FCB493021C83325AD45BFA5, ED2K: 102BD5A205B131751289C3D349C530B3
Screenshots
screenshotscreenshotscreenshotscreenshotscreenshot
SubtitlesAll Attachments | Signs/Karaoke [Glue] - [kBaraka] [zxx, ASS], [Glue] - [kBaraka] [eng, ASS]
Additional Info
General
Unique ID                                : 231396433739379627801000518711052220335 (0xAE155502F3F61EE96B39734028C637AF)
Complete name                            : [NoobSubs] Mob Psycho 100 12 (720p Blu-ray Dual Audio 8bit AAC)[53DB2C2B].mkv
Format                                   : Matroska
Format version                           : Version 4
File size                                : 534 MiB
Duration                                 : 24 min 11 s
Overall bit rate                         : 3 088 kb/s
Movie name                               : [Akatomba-kBaraka] Mob Psycho 100 - 12 (BD 1920x1080 x264 FLAC) [5DBE876C] / [NoobSubs] Mob Psycho 100 12 (720p Blu-ray Dual Audio 8bit AAC)
Track name/Position                      : 12
Track name/Total                         : 12
Encoded date                             : UTC 2019-03-03 00:54:46
Writing application                      : mkvmerge v31.0.0 ('Dolores In A Shoestand') 64-bit
Writing library                          : libebml v1.3.6 + libmatroska v1.4.9
Attachments                              : Aero Matics Bold.ttf / Amaranth-Bold.otf / blemished.ttf / CONSTANB.TTF / disco.ttf / Montara-Gothic.ttf / Montara-Italic_0.ttf / Psycho Numbers.ttf / RaysHand Regular.ttf / SALADEDEFRUITSORANGE.TTF
ARTIST                                   : Subs: [Glue] - [kBaraka]

Video
ID                                       : 1
Format                                   : AVC
Format/Info                              : Advanced Video Codec
Format profile                           : High@L4
Format settings                          : CABAC / 6 Ref Frames
Format settings, CABAC                   : Yes
Format settings, ReFrames                : 6 frames
Codec ID                                 : V_MPEG4/ISO/AVC
Duration                                 : 24 min 11 s
Bit rate                                 : 2 522 kb/s
Width                                    : 1 280 pixels
Height                                   : 720 pixels
Display aspect ratio                     : 16:9
Frame rate mode                          : Constant
Frame rate                               : 23.976 (24000/1001) FPS
Color space                              : YUV
Chroma subsampling                       : 4:2:0
Bit depth                                : 8 bits
Scan type                                : Progressive
Bits/(Pixel*Frame)                       : 0.114
Stream size                              : 436 MiB (82%)
Writing library                          : x264 core 157 r2935 545de2f
Encoding settings                        : cabac=1 / ref=6 / deblock=1:0:0 / analyse=0x3:0x133 / me=umh / subme=10 / psy=1 / psy_rd=1.00:0.00 / mixed_ref=1 / me_range=24 / chroma_me=1 / trellis=2 / 8x8dct=1 / cqm=0 / deadzone=21,11 / fast_pskip=1 / chroma_qp_offset=-2 / threads=12 / lookahead_threads=2 / sliced_threads=0 / nr=0 / decimate=1 / interlaced=0 / bluray_compat=0 / constrained_intra=0 / bframes=7 / b_pyramid=2 / b_adapt=2 / b_bias=0 / direct=3 / weightb=1 / open_gop=0 / weightp=2 / keyint=250 / keyint_min=23 / scenecut=40 / intra_refresh=0 / rc_lookahead=60 / rc=crf / mbtree=1 / crf=17.3 / qcomp=0.60 / qpmin=0 / qpmax=69 / qpstep=4 / ip_ratio=1.40 / aq=1:1.10
Default                                  : Yes
Forced                                   : No

Audio #1
ID                                       : 4
Format                                   : AAC LC
Format/Info                              : Advanced Audio Codec Low Complexity
Codec ID                                 : A_AAC-2
Duration                                 : 24 min 10 s
Bit rate                                 : 270 kb/s
Channel(s)                               : 2 channels
Channel layout                           : L R
Sampling rate                            : 48.0 kHz
Frame rate                               : 46.875 FPS (1024 SPF)
Compression mode                         : Lossy
Delay relative to video                  : 9 ms
Stream size                              : 46.8 MiB (9%)
Title                                    : English 2.0 channel AAC
Language                                 : English
Default                                  : Yes
Forced                                   : No

Audio #2
ID                                       : 5
Format                                   : AAC LC
Format/Info                              : Advanced Audio Codec Low Complexity
Codec ID                                 : A_AAC-2
Duration                                 : 24 min 11 s
Bit rate                                 : 288 kb/s
Channel(s)                               : 2 channels
Channel layout                           : L R
Sampling rate                            : 48.0 kHz
Frame rate                               : 46.875 FPS (1024 SPF)
Compression mode                         : Lossy
Delay relative to video                  : 9 ms
Stream size                              : 49.2 MiB (9%)
Title                                    : Japanese 2.0 channel AAC
Language                                 : Japanese
Default                                  : No
Forced                                   : No

Text #1
ID                                       : 2
Format                                   : ASS
Codec ID                                 : S_TEXT/ASS
Codec ID/Info                            : Advanced Sub Station Alpha
Bit rate                                 : 0 b/s
Count of elements                        : 0
Compression mode                         : Lossless
Stream size                              : 0.00 Byte (0%)
Title                                    : Signs/Karaoke [Glue] - [kBaraka]
Language                                 : zxx
Default                                  : Yes
Forced                                   : No

Text #2
ID                                       : 3
Format                                   : ASS
Codec ID                                 : S_TEXT/ASS
Codec ID/Info                            : Advanced Sub Station Alpha
Duration                                 : 24 min 4 s
Bit rate                                 : 145 b/s
Count of elements                        : 451
Compression mode                         : Lossless
Stream size                              : 25.6 KiB (0%)
Title                                    : [Glue] - [kBaraka]
Language                                 : English
Default                                  : No
Forced                                   : No

Menu
00:00:00.000                             : Prologue
00:00:45.045                             : Opening
00:02:15.010                             : Part A
00:14:52.975                             : Part B
00:19:13.694                             : Ending
00:20:46.245                             : Epilogue
00:21:42.051                             : Part C

Other Files in this Torrent
[NoobSubs] Mob Psycho 100 12 (720p Blu-ray Dual Audio 8bit AAC)[53DB2C2B].mkv
beta
Anime DDL+NZB mirror
Current Time: 25/09/2020 23:07



About/FAQs