Extras/[NoobSubs] Mob Psycho 100 PV03 (720p Blu-ray 8bit AAC).mp4


File Size68.69 MB (72,025,731 bytes)
DownloadClickNUpload | Go4Up
  • DownAce
  • FileFactory
  • KatFile
  • Oboom
  • OwnDrives
  • Share-Online
  • SolidFiles
  • TusFiles
  • Uppit
  • UsersCloud
| Jheberg | MultiUp | OpenLoad | Sendspace | ZippyShare
HashesCRC32: 6DA28708, MD5: 1EA74F0726FFE6F512EB028FC334F20B, SHA1: A8D0765B5040FD0204572FF5F78F44C03EC2DCA9, SHA256: CD31D56D5FB065588E69EFF21E86D1042CBCBE1B899B078865ABB2789C24582F, ED2K: 0492D0B06E1E1DDDB9D8B698B196FDAC
Screenshots
screenshotscreenshotscreenshot
Additional Info
General
Complete name                            : [NoobSubs] Mob Psycho 100 PV03 (720p Blu-ray 8bit AAC).mp4
Format                                   : MPEG-4
Format profile                           : Base Media
Codec ID                                 : isom (isom/avc1)
File size                                : 68.7 MiB
Duration                                 : 2 min 21 s
Overall bit rate mode                    : Variable
Overall bit rate                         : 4 060 kb/s
Movie name                               : [NoobSubs] Mob Psycho 100 PV03 (720p Blu-ray 8bit AAC)
Album                                    : Mob Psycho 100
Track name/Position                      : 3
Track name/Total                         : 3
Performer                                : Subs: None
Encoded date                             : UTC 2019-03-03 04:54:32
Tagged date                              : UTC 2019-03-03 14:23:50
replaygain_undo                          : 1,1
replaygain_track_peak                    : 0.390000
replaygain_track_minmax                  : 102,174
replaygain_track_gain                    : +0.32 dB

Video
ID                                       : 1
Format                                   : AVC
Format/Info                              : Advanced Video Codec
Format profile                           : High@L4
Format settings                          : CABAC / 6 Ref Frames
Format settings, CABAC                   : Yes
Format settings, ReFrames                : 6 frames
Codec ID                                 : avc1
Codec ID/Info                            : Advanced Video Coding
Duration                                 : 2 min 21 s
Bit rate                                 : 3 819 kb/s
Maximum bit rate                         : 11.6 Mb/s
Width                                    : 1 280 pixels
Height                                   : 720 pixels
Display aspect ratio                     : 16:9
Frame rate mode                          : Constant
Frame rate                               : 23.976 (24000/1001) FPS
Color space                              : YUV
Chroma subsampling                       : 4:2:0
Bit depth                                : 8 bits
Scan type                                : Progressive
Bits/(Pixel*Frame)                       : 0.173
Stream size                              : 64.6 MiB (94%)
Title                                    : 264@GPAC0.7.0-rev0-gbd5c9af-master
Writing library                          : x264 core 157 r2935 545de2f
Encoding settings                        : cabac=1 / ref=6 / deblock=1:0:0 / analyse=0x3:0x133 / me=umh / subme=10 / psy=1 / psy_rd=1.00:0.00 / mixed_ref=1 / me_range=24 / chroma_me=1 / trellis=2 / 8x8dct=1 / cqm=0 / deadzone=21,11 / fast_pskip=1 / chroma_qp_offset=-2 / threads=12 / lookahead_threads=2 / sliced_threads=0 / nr=0 / decimate=1 / interlaced=0 / bluray_compat=0 / constrained_intra=0 / bframes=7 / b_pyramid=2 / b_adapt=2 / b_bias=0 / direct=3 / weightb=1 / open_gop=0 / weightp=2 / keyint=250 / keyint_min=23 / scenecut=40 / intra_refresh=0 / rc_lookahead=60 / rc=crf / mbtree=1 / crf=17.3 / qcomp=0.60 / qpmin=0 / qpmax=69 / qpstep=4 / ip_ratio=1.40 / aq=1:1.10
Encoded date                             : UTC 2019-03-03 04:54:32
Tagged date                              : UTC 2019-03-03 04:54:33
Codec configuration box                  : avcC

Audio
ID                                       : 2
Format                                   : AAC LC
Format/Info                              : Advanced Audio Codec Low Complexity
Codec ID                                 : mp4a-40-2
Duration                                 : 2 min 21 s
Bit rate mode                            : Variable
Bit rate                                 : 240 kb/s
Maximum bit rate                         : 288 kb/s
Channel(s)                               : 2 channels
Channel layout                           : L R
Sampling rate                            : 48.0 kHz
Frame rate                               : 46.875 FPS (1024 SPF)
Compression mode                         : Lossy
Stream size                              : 4.06 MiB (6%)
Encoded date                             : UTC 2019-03-03 04:54:28
Tagged date                              : UTC 2019-03-03 04:54:33

Other Files in this Torrent
Extras/[NoobSubs] Mob Psycho 100 PV03 (720p Blu-ray 8bit AAC).mp4
beta
Anime DDL+NZB mirror
Current Time: 04/07/2020 20:28



About/FAQs