Extras/[NoobSubs] Mob Psycho 100 OP (720p Blu-ray 8bit AAC).mp4


File Size64.80 MB (67,946,845 bytes)
DownloadClickNUpload | Go4Up
  • DownAce
  • FileFactory
  • KatFile
  • Oboom
  • OwnDrives
  • Share-Online
  • SolidFiles
  • TusFiles
  • Uppit
  • UsersCloud
| Jheberg | MultiUp | OpenLoad | Sendspace | ZippyShare
HashesCRC32: 4821A973, MD5: C4CC870C8B0981076F3021D652052D28, SHA1: 8ECCCAC13B8D6170E25B78035D40E46A1565A0CC, SHA256: CC177DECE6B0247CEE85CCDB23515EB1391C194D661570F71ABA1F56F8C7EAAE, ED2K: E4A6CB5F0B46A622BE3A9ED56FAB51E2
Screenshots
screenshotscreenshot
Additional Info
General
Complete name                            : [NoobSubs] Mob Psycho 100 OP (720p Blu-ray 8bit AAC).mp4
Format                                   : MPEG-4
Format profile                           : Base Media
Codec ID                                 : isom (isom/avc1)
File size                                : 64.8 MiB
Duration                                 : 1 min 30 s
Overall bit rate mode                    : Variable
Overall bit rate                         : 6 037 kb/s
Movie name                               : [NoobSubs] Mob Psycho 100 OP (720p Blu-ray 8bit AAC)
Album                                    : Mob Psycho 100
Track name/Position                      : 1
Track name/Total                         : 1
Performer                                : Subs: [Glue] - [kBaraka]
Encoded date                             : UTC 2019-03-03 14:29:41
Tagged date                              : UTC 2019-03-03 15:00:03
replaygain_track_peak                    : 0.490000
replaygain_track_minmax                  : 104,177
replaygain_track_gain                    : +0.86 dB

Video
ID                                       : 1
Format                                   : AVC
Format/Info                              : Advanced Video Codec
Format profile                           : High@L4
Format settings                          : CABAC / 6 Ref Frames
Format settings, CABAC                   : Yes
Format settings, ReFrames                : 6 frames
Codec ID                                 : avc1
Codec ID/Info                            : Advanced Video Coding
Duration                                 : 1 min 29 s
Bit rate                                 : 5 769 kb/s
Maximum bit rate                         : 12.2 Mb/s
Width                                    : 1 280 pixels
Height                                   : 720 pixels
Display aspect ratio                     : 16:9
Frame rate mode                          : Constant
Frame rate                               : 23.976 (24000/1001) FPS
Color space                              : YUV
Chroma subsampling                       : 4:2:0
Bit depth                                : 8 bits
Scan type                                : Progressive
Bits/(Pixel*Frame)                       : 0.261
Stream size                              : 61.8 MiB (95%)
Title                                    : 264@GPAC0.7.0-rev0-gbd5c9af-master
Writing library                          : x264 core 157 r2935 545de2f
Encoding settings                        : cabac=1 / ref=6 / deblock=1:0:0 / analyse=0x3:0x133 / me=umh / subme=10 / psy=1 / psy_rd=1.00:0.00 / mixed_ref=1 / me_range=24 / chroma_me=1 / trellis=2 / 8x8dct=1 / cqm=0 / deadzone=21,11 / fast_pskip=1 / chroma_qp_offset=-2 / threads=12 / lookahead_threads=2 / sliced_threads=0 / nr=0 / decimate=1 / interlaced=0 / bluray_compat=0 / constrained_intra=0 / bframes=7 / b_pyramid=2 / b_adapt=2 / b_bias=0 / direct=3 / weightb=1 / open_gop=0 / weightp=2 / keyint=250 / keyint_min=23 / scenecut=40 / intra_refresh=0 / rc_lookahead=60 / rc=crf / mbtree=1 / crf=17.3 / qcomp=0.60 / qpmin=0 / qpmax=69 / qpstep=4 / ip_ratio=1.40 / aq=1:1.10
Encoded date                             : UTC 2019-03-03 14:29:41
Tagged date                              : UTC 2019-03-03 14:29:41
Codec configuration box                  : avcC

Audio
ID                                       : 2
Format                                   : AAC LC
Format/Info                              : Advanced Audio Codec Low Complexity
Codec ID                                 : mp4a-40-2
Duration                                 : 1 min 30 s
Bit rate mode                            : Variable
Bit rate                                 : 271 kb/s
Maximum bit rate                         : 290 kb/s
Channel(s)                               : 2 channels
Channel layout                           : L R
Sampling rate                            : 48.0 kHz
Frame rate                               : 46.875 FPS (1024 SPF)
Compression mode                         : Lossy
Stream size                              : 2.91 MiB (4%)
Encoded date                             : UTC 2019-03-03 14:29:38
Tagged date                              : UTC 2019-03-03 14:29:41

Other Files in this Torrent
Extras/[NoobSubs] Mob Psycho 100 OP (720p Blu-ray 8bit AAC).mp4
beta
Anime DDL+NZB mirror
Current Time: 07/07/2020 23:44



About/FAQs