Extras/[NoobSubs] Mob Psycho 100 Menu 06 (720p Blu-ray 8bit AAC).mp4


File Size22.44 MB (23,526,010 bytes)
DownloadClickNUpload | Go4Up
  • DownAce
  • FileFactory
  • KatFile
  • Oboom
  • OwnDrives
  • Share-Online
  • SolidFiles
  • TusFiles
  • Uppit
  • UsersCloud
| Jheberg | MultiUp | OpenLoad | Sendspace | ZippyShare
HashesCRC32: 7EBE4A2B, MD5: 32D09121FD5154B7015D960E5DBFD65B, SHA1: CD644E22E50D24E5EECACEA11654A17469AB1B33, SHA256: C8AFF9BF4867641DBE7C3B126A7198EB43F5BAFC5F12287E14D118D40757BF4A, ED2K: D724148FD76D72E1B8C7B3AA95D0ADE2
Screenshots
screenshotscreenshot
Additional Info
General
Complete name                            : [NoobSubs] Mob Psycho 100 Menu 06 (720p Blu-ray 8bit AAC).mp4
Format                                   : MPEG-4
Format profile                           : Base Media
Codec ID                                 : isom (isom/avc1)
File size                                : 22.4 MiB
Duration                                 : 1 min 34 s
Overall bit rate mode                    : Variable
Overall bit rate                         : 1 987 kb/s
Movie name                               : [NoobSubs] Mob Psycho 100 Menu 06 (720p Blu-ray 8bit AAC)
Album                                    : Mob Psycho 100
Track name/Position                      : 6
Track name/Total                         : 6
Performer                                : Subs: None
Encoded date                             : UTC 2019-03-03 04:15:08
Tagged date                              : UTC 2019-03-03 14:23:11
replaygain_undo                          : -7,-7
replaygain_track_peak                    : 0.770000
replaygain_track_minmax                  : 111,176
replaygain_track_gain                    : +1.07 dB

Video
ID                                       : 1
Format                                   : AVC
Format/Info                              : Advanced Video Codec
Format profile                           : High@L4
Format settings                          : CABAC / 6 Ref Frames
Format settings, CABAC                   : Yes
Format settings, ReFrames                : 6 frames
Codec ID                                 : avc1
Codec ID/Info                            : Advanced Video Coding
Duration                                 : 1 min 34 s
Bit rate                                 : 1 735 kb/s
Maximum bit rate                         : 10.0 Mb/s
Width                                    : 1 280 pixels
Height                                   : 720 pixels
Display aspect ratio                     : 16:9
Frame rate mode                          : Constant
Frame rate                               : 23.976 (24000/1001) FPS
Color space                              : YUV
Chroma subsampling                       : 4:2:0
Bit depth                                : 8 bits
Scan type                                : Progressive
Bits/(Pixel*Frame)                       : 0.079
Stream size                              : 19.6 MiB (87%)
Title                                    : 264@GPAC0.7.0-rev0-gbd5c9af-master
Writing library                          : x264 core 157 r2935 545de2f
Encoding settings                        : cabac=1 / ref=6 / deblock=1:0:0 / analyse=0x3:0x133 / me=umh / subme=10 / psy=1 / psy_rd=1.00:0.00 / mixed_ref=1 / me_range=24 / chroma_me=1 / trellis=2 / 8x8dct=1 / cqm=0 / deadzone=21,11 / fast_pskip=1 / chroma_qp_offset=-2 / threads=12 / lookahead_threads=2 / sliced_threads=0 / nr=0 / decimate=1 / interlaced=0 / bluray_compat=0 / constrained_intra=0 / bframes=7 / b_pyramid=2 / b_adapt=2 / b_bias=0 / direct=3 / weightb=1 / open_gop=0 / weightp=2 / keyint=250 / keyint_min=23 / scenecut=40 / intra_refresh=0 / rc_lookahead=60 / rc=crf / mbtree=1 / crf=17.3 / qcomp=0.60 / qpmin=0 / qpmax=69 / qpstep=4 / ip_ratio=1.40 / aq=1:1.10
Encoded date                             : UTC 2019-03-03 04:15:08
Tagged date                              : UTC 2019-03-03 04:15:08
Codec configuration box                  : avcC

Audio
ID                                       : 2
Format                                   : AAC LC
Format/Info                              : Advanced Audio Codec Low Complexity
Codec ID                                 : mp4a-40-2
Duration                                 : 1 min 34 s
Bit rate mode                            : Variable
Bit rate                                 : 249 kb/s
Maximum bit rate                         : 280 kb/s
Channel(s)                               : 2 channels
Channel layout                           : L R
Sampling rate                            : 48.0 kHz
Frame rate                               : 46.875 FPS (1024 SPF)
Compression mode                         : Lossy
Stream size                              : 2.81 MiB (13%)
Encoded date                             : UTC 2019-03-03 04:15:05
Tagged date                              : UTC 2019-03-03 04:15:08

Other Files in this Torrent
Extras/[NoobSubs] Mob Psycho 100 Menu 06 (720p Blu-ray 8bit AAC).mp4
beta
Anime DDL+NZB mirror
Current Time: 26/09/2020 04:29



About/FAQs