Ninja Kamui S01E12 MULTi 720p WEB x264 E-AC-3 -Tsundere-Raws (MAX).mkv


File Size185.6 MB (194,642,635 bytes)
DownloadClickNUpload | DailyUploads | GoFile | KrakenFiles | MdiaLoad | MultiUp
  • BdUpload
  • DownAce
  • Fichier
  • FileCloud
  • Filerio
  • FilesCdn
  • IndiShare
  • Kbagi
  • Turbobit
  • UpToBox
  • Uppit
HashesCRC32: B972EB41, MD5: 06A613D298D31B705AF225599674FED7, SHA1: C5D62CC3657D7DC36390FEC8AF3365E0D4BD860E, SHA256: EF236F66FD6F69DF9B91FE625070282606F7F6A81C136961D8831F98438EDD86, ED2K: 37A2BD28003DED90E58D8456F5A9CB86
Screenshots
screenshotscreenshotscreenshotscreenshotscreenshot
SubtitlesAll Attachments | Forced [spa, SRT], bul [SRT], cze [SRT], dan [SRT], United States [eng, SRT], spa [SRT], fin [SRT], fre [SRT], hrv [SRT], hun [SRT], mac [SRT], nob [SRT], dut [SRT], pol [SRT], por [SRT], rum [SRT], slv [SRT], Latin [srp, SRT], swe [SRT]
Additional Info
General
Unique ID                                : 218066642902349239285090083891304403621 (0xA40E1B95186396A6AEC174C503E312A5)
Complete name                            : Ninja Kamui S01E12 MULTi 720p WEB x264 E-AC-3 -Tsundere-Raws (MAX).mkv
Format                                   : Matroska
Format version                           : Version 4
File size                                : 186 MiB
Duration                                 : 22 min 20 s
Overall bit rate mode                    : Variable
Overall bit rate                         : 1 162 kb/s
Frame rate                               : 25.000 FPS
Movie name                               : Ninja Kamui S01E12
Writing application                      : mkvmerge v84.0 ('Sleeper') 64-bit
Writing library                          : libebml v1.4.5 + libmatroska v1.7.1

Video
ID                                       : 1
Format                                   : AVC
Format/Info                              : Advanced Video Codec
Format profile                           : High@L3.1
Format settings                          : CABAC / 4 Ref Frames
Format settings, CABAC                   : Yes
Format settings, Reference frames        : 4 frames
Codec ID                                 : V_MPEG4/ISO/AVC
Duration                                 : 22 min 20 s
Bit rate mode                            : Variable
Bit rate                                 : 773 kb/s
Maximum bit rate                         : 4 000 kb/s
Width                                    : 1 280 pixels
Height                                   : 720 pixels
Display aspect ratio                     : 16:9
Frame rate mode                          : Constant
Frame rate                               : 25.000 FPS
Color space                              : YUV
Chroma subsampling                       : 4:2:0
Bit depth                                : 8 bits
Scan type                                : Progressive
Bits/(Pixel*Frame)                       : 0.034
Stream size                              : 124 MiB (67%)
Writing library                          : x264 core 164
Encoding settings                        : cabac=1 / ref=4 / deblock=1:0:0 / analyse=0x3:0x133 / me=umh / subme=10 / psy=1 / psy_rd=1.00:0.00 / mixed_ref=1 / me_range=24 / chroma_me=1 / trellis=2 / 8x8dct=1 / cqm=0 / deadzone=21,11 / fast_pskip=1 / chroma_qp_offset=-2 / threads=22 / lookahead_threads=1 / sliced_threads=0 / nr=0 / decimate=1 / interlaced=0 / bluray_compat=0 / stitchable=1 / constrained_intra=0 / bframes=3 / b_pyramid=2 / b_adapt=2 / b_bias=0 / direct=3 / weightb=1 / open_gop=0 / weightp=2 / keyint=100 / keyint_min=51 / scenecut=0 / intra_refresh=0 / rc_lookahead=100 / rc=crf / mbtree=1 / crf=21.0 / qcomp=0.60 / qpmin=0 / qpmax=69 / qpstep=4 / vbv_maxrate=4000 / vbv_bufsize=16000 / crf_max=0.0 / nal_hrd=vbr / filler=0 / ip_ratio=1.40 / aq=1:1.00
Language                                 : Japanese
Default                                  : Yes
Forced                                   : No
Color range                              : Limited
Color primaries                          : BT.709
Transfer characteristics                 : BT.709
Matrix coefficients                      : BT.709

Audio #1
ID                                       : 2
Format                                   : E-AC-3
Format/Info                              : Enhanced AC-3
Commercial name                          : Dolby Digital Plus
Codec ID                                 : A_EAC3
Duration                                 : 22 min 19 s
Bit rate mode                            : Constant
Bit rate                                 : 128 kb/s
Channel(s)                               : 2 channels
Channel layout                           : L R
Sampling rate                            : 48.0 kHz
Frame rate                               : 31.250 FPS (1536 SPF)
Compression mode                         : Lossy
Stream size                              : 20.4 MiB (11%)
Title                                    : United States
Language                                 : English (US)
Service kind                             : Complete Main
Default                                  : Yes
Forced                                   : No

Audio #2
ID                                       : 3
Format                                   : E-AC-3
Format/Info                              : Enhanced AC-3
Commercial name                          : Dolby Digital Plus
Codec ID                                 : A_EAC3
Duration                                 : 22 min 19 s
Bit rate mode                            : Constant
Bit rate                                 : 128 kb/s
Channel(s)                               : 2 channels
Channel layout                           : L R
Sampling rate                            : 48.0 kHz
Frame rate                               : 31.250 FPS (1536 SPF)
Compression mode                         : Lossy
Stream size                              : 20.4 MiB (11%)
Language                                 : Spanish (ES)
Service kind                             : Complete Main
Default                                  : No
Forced                                   : No

Audio #3
ID                                       : 4
Format                                   : E-AC-3
Format/Info                              : Enhanced AC-3
Commercial name                          : Dolby Digital Plus
Codec ID                                 : A_EAC3
Duration                                 : 22 min 19 s
Bit rate mode                            : Constant
Bit rate                                 : 128 kb/s
Channel(s)                               : 2 channels
Channel layout                           : L R
Sampling rate                            : 48.0 kHz
Frame rate                               : 31.250 FPS (1536 SPF)
Compression mode                         : Lossy
Stream size                              : 20.4 MiB (11%)
Language                                 : Japanese
Service kind                             : Complete Main
Default                                  : No
Forced                                   : No

Text #1
ID                                       : 5
Format                                   : UTF-8
Codec ID                                 : S_TEXT/UTF8
Codec ID/Info                            : UTF-8 Plain Text
Duration                                 : 3 s 360 ms
Bit rate                                 : 85 b/s
Frame rate                               : 0.298 FPS
Count of elements                        : 1
Stream size                              : 36.0 Bytes (0%)
Title                                    : Forced
Language                                 : Spanish (ES)
Default                                  : No
Forced                                   : Yes

Text #2
ID                                       : 6
Format                                   : UTF-8
Codec ID                                 : S_TEXT/UTF8
Codec ID/Info                            : UTF-8 Plain Text
Duration                                 : 21 min 4 s
Bit rate                                 : 101 b/s
Frame rate                               : 0.198 FPS
Count of elements                        : 250
Stream size                              : 15.7 KiB (0%)
Language                                 : Bulgarian
Default                                  : No
Forced                                   : No

Text #3
ID                                       : 7
Format                                   : UTF-8
Codec ID                                 : S_TEXT/UTF8
Codec ID/Info                            : UTF-8 Plain Text
Duration                                 : 20 min 38 s
Bit rate                                 : 67 b/s
Frame rate                               : 0.233 FPS
Count of elements                        : 288
Stream size                              : 10.2 KiB (0%)
Language                                 : Czech
Default                                  : No
Forced                                   : No

Text #4
ID                                       : 8
Format                                   : UTF-8
Codec ID                                 : S_TEXT/UTF8
Codec ID/Info                            : UTF-8 Plain Text
Duration                                 : 20 min 50 s
Bit rate                                 : 69 b/s
Frame rate                               : 0.189 FPS
Count of elements                        : 236
Stream size                              : 10.6 KiB (0%)
Language                                 : Danish
Default                                  : No
Forced                                   : No

Text #5
ID                                       : 9
Format                                   : UTF-8
Codec ID                                 : S_TEXT/UTF8
Codec ID/Info                            : UTF-8 Plain Text
Duration                                 : 20 min 43 s
Bit rate                                 : 79 b/s
Frame rate                               : 0.236 FPS
Count of elements                        : 293
Stream size                              : 12.1 KiB (0%)
Title                                    : United States
Language                                 : English (US)
Default                                  : No
Forced                                   : No

Text #6
ID                                       : 10
Format                                   : UTF-8
Codec ID                                 : S_TEXT/UTF8
Codec ID/Info                            : UTF-8 Plain Text
Duration                                 : 20 min 35 s
Bit rate                                 : 80 b/s
Frame rate                               : 0.259 FPS
Count of elements                        : 320
Stream size                              : 12.1 KiB (0%)
Language                                 : Spanish (ES)
Default                                  : No
Forced                                   : No

Text #7
ID                                       : 11
Format                                   : UTF-8
Codec ID                                 : S_TEXT/UTF8
Codec ID/Info                            : UTF-8 Plain Text
Duration                                 : 20 min 50 s
Bit rate                                 : 68 b/s
Frame rate                               : 0.193 FPS
Count of elements                        : 241
Stream size                              : 10.4 KiB (0%)
Language                                 : Finnish
Default                                  : No
Forced                                   : No

Text #8
ID                                       : 12
Format                                   : UTF-8
Codec ID                                 : S_TEXT/UTF8
Codec ID/Info                            : UTF-8 Plain Text
Duration                                 : 20 min 51 s
Bit rate                                 : 72 b/s
Frame rate                               : 0.241 FPS
Count of elements                        : 301
Stream size                              : 11.0 KiB (0%)
Language                                 : French (FR)
Default                                  : No
Forced                                   : No

Text #9
ID                                       : 13
Format                                   : UTF-8
Codec ID                                 : S_TEXT/UTF8
Codec ID/Info                            : UTF-8 Plain Text
Duration                                 : 20 min 43 s
Bit rate                                 : 65 b/s
Frame rate                               : 0.237 FPS
Count of elements                        : 295
Stream size                              : 9.97 KiB (0%)
Language                                 : Croatian
Default                                  : No
Forced                                   : No

Text #10
ID                                       : 14
Format                                   : UTF-8
Codec ID                                 : S_TEXT/UTF8
Codec ID/Info                            : UTF-8 Plain Text
Duration                                 : 20 min 42 s
Bit rate                                 : 73 b/s
Frame rate                               : 0.212 FPS
Count of elements                        : 263
Stream size                              : 11.1 KiB (0%)
Language                                 : Hungarian
Default                                  : No
Forced                                   : No

Text #11
ID                                       : 15
Format                                   : UTF-8
Codec ID                                 : S_TEXT/UTF8
Codec ID/Info                            : UTF-8 Plain Text
Duration                                 : 20 min 43 s
Bit rate                                 : 115 b/s
Frame rate                               : 0.237 FPS
Count of elements                        : 295
Stream size                              : 17.6 KiB (0%)
Language                                 : Macedonian
Default                                  : No
Forced                                   : No

Text #12
ID                                       : 16
Format                                   : UTF-8
Codec ID                                 : S_TEXT/UTF8
Codec ID/Info                            : UTF-8 Plain Text
Duration                                 : 20 min 51 s
Bit rate                                 : 65 b/s
Frame rate                               : 0.174 FPS
Count of elements                        : 218
Stream size                              : 10.1 KiB (0%)
Language                                 : Norwegian Bokmal
Default                                  : No
Forced                                   : No

Text #13
ID                                       : 17
Format                                   : UTF-8
Codec ID                                 : S_TEXT/UTF8
Codec ID/Info                            : UTF-8 Plain Text
Duration                                 : 20 min 50 s
Bit rate                                 : 68 b/s
Frame rate                               : 0.194 FPS
Count of elements                        : 243
Stream size                              : 10.5 KiB (0%)
Language                                 : Dutch
Default                                  : No
Forced                                   : No

Text #14
ID                                       : 18
Format                                   : UTF-8
Codec ID                                 : S_TEXT/UTF8
Codec ID/Info                            : UTF-8 Plain Text
Duration                                 : 21 min 8 s
Bit rate                                 : 60 b/s
Frame rate                               : 0.191 FPS
Count of elements                        : 242
Stream size                              : 9.32 KiB (0%)
Language                                 : Polish
Default                                  : No
Forced                                   : No

Text #15
ID                                       : 19
Format                                   : UTF-8
Codec ID                                 : S_TEXT/UTF8
Codec ID/Info                            : UTF-8 Plain Text
Duration                                 : 20 min 50 s
Bit rate                                 : 77 b/s
Frame rate                               : 0.222 FPS
Count of elements                        : 277
Stream size                              : 11.9 KiB (0%)
Language                                 : Portuguese (PT)
Default                                  : No
Forced                                   : No

Text #16
ID                                       : 20
Format                                   : UTF-8
Codec ID                                 : S_TEXT/UTF8
Codec ID/Info                            : UTF-8 Plain Text
Duration                                 : 20 min 43 s
Bit rate                                 : 69 b/s
Frame rate                               : 0.204 FPS
Count of elements                        : 254
Stream size                              : 10.6 KiB (0%)
Language                                 : Romanian
Default                                  : No
Forced                                   : No

Text #17
ID                                       : 21
Format                                   : UTF-8
Codec ID                                 : S_TEXT/UTF8
Codec ID/Info                            : UTF-8 Plain Text
Duration                                 : 20 min 43 s
Bit rate                                 : 64 b/s
Frame rate                               : 0.237 FPS
Count of elements                        : 295
Stream size                              : 9.75 KiB (0%)
Language                                 : Slovenian
Default                                  : No
Forced                                   : No

Text #18
ID                                       : 22
Format                                   : UTF-8
Codec ID                                 : S_TEXT/UTF8
Codec ID/Info                            : UTF-8 Plain Text
Duration                                 : 20 min 43 s
Bit rate                                 : 62 b/s
Frame rate                               : 0.237 FPS
Count of elements                        : 295
Stream size                              : 9.45 KiB (0%)
Title                                    : Latin
Language                                 : Serbian (Latn)
Default                                  : No
Forced                                   : No

Text #19
ID                                       : 23
Format                                   : UTF-8
Codec ID                                 : S_TEXT/UTF8
Codec ID/Info                            : UTF-8 Plain Text
Duration                                 : 20 min 50 s
Bit rate                                 : 73 b/s
Frame rate                               : 0.196 FPS
Count of elements                        : 245
Stream size                              : 11.2 KiB (0%)
Language                                 : Swedish
Default                                  : No
Forced                                   : No

Other Files in this Torrent
Ninja Kamui S01E12 MULTi 720p WEB x264 E-AC-3 -Tsundere-Raws (MAX).mkv
beta
Anime DDL+NZB mirror
Current Time: 19/07/2024 07:59



About/FAQs

Discord