Ninja Kamui S01E10 MULTi 720p WEB x264 E-AC-3 -Tsundere-Raws (MAX).mkv


File Size198.2 MB (207,825,254 bytes)
DownloadClickNUpload | DailyUploads | GoFile | KrakenFiles | MdiaLoad | MultiUp
  • BdUpload
  • DownAce
  • Fichier
  • FileCloud
  • Filerio
  • FilesCdn
  • IndiShare
  • Kbagi
  • Turbobit
  • UpToBox
  • Uppit
HashesCRC32: 96EBB3F1, MD5: A5D14BB03588C070FEB458A983F00E27, SHA1: BB4BDC04CFD956F9DD33A08A55EF97D4B69E0CCE, SHA256: 07A594F8D36FAD41A1012E2C657BF5ABC2643C1D135179C3F06EE61E6DEAC4F3, ED2K: E88796399A1B5089DFEF6E76E06443A1
Screenshots
screenshotscreenshotscreenshotscreenshotscreenshot
SubtitlesAll Attachments | Forced [spa, SRT], bul [SRT], cze [SRT], dan [SRT], United States [eng, SRT], spa [SRT], fin [SRT], fre [SRT], hrv [SRT], hun [SRT], mac [SRT], nob [SRT], dut [SRT], pol [SRT], por [SRT], rum [SRT], slv [SRT], Latin [srp, SRT], swe [SRT]
Additional Info
General
Unique ID                                : 317072016204124049738168434731696405425 (0xEE89D95B918ED92884653F2E05823BB1)
Complete name                            : Ninja Kamui S01E10 MULTi 720p WEB x264 E-AC-3 -Tsundere-Raws (MAX).mkv
Format                                   : Matroska
Format version                           : Version 4
File size                                : 198 MiB
Duration                                 : 22 min 19 s
Overall bit rate mode                    : Variable
Overall bit rate                         : 1 242 kb/s
Frame rate                               : 25.000 FPS
Movie name                               : Ninja Kamui S01E10
Writing application                      : mkvmerge v84.0 ('Sleeper') 64-bit
Writing library                          : libebml v1.4.5 + libmatroska v1.7.1

Video
ID                                       : 1
Format                                   : AVC
Format/Info                              : Advanced Video Codec
Format profile                           : High@L3.1
Format settings                          : CABAC / 4 Ref Frames
Format settings, CABAC                   : Yes
Format settings, Reference frames        : 4 frames
Codec ID                                 : V_MPEG4/ISO/AVC
Duration                                 : 22 min 19 s
Bit rate mode                            : Variable
Bit rate                                 : 853 kb/s
Maximum bit rate                         : 4 000 kb/s
Width                                    : 1 280 pixels
Height                                   : 720 pixels
Display aspect ratio                     : 16:9
Frame rate mode                          : Constant
Frame rate                               : 25.000 FPS
Color space                              : YUV
Chroma subsampling                       : 4:2:0
Bit depth                                : 8 bits
Scan type                                : Progressive
Bits/(Pixel*Frame)                       : 0.037
Stream size                              : 136 MiB (69%)
Writing library                          : x264 core 164
Encoding settings                        : cabac=1 / ref=4 / deblock=1:0:0 / analyse=0x3:0x133 / me=umh / subme=10 / psy=1 / psy_rd=1.00:0.00 / mixed_ref=1 / me_range=24 / chroma_me=1 / trellis=2 / 8x8dct=1 / cqm=0 / deadzone=21,11 / fast_pskip=1 / chroma_qp_offset=-2 / threads=22 / lookahead_threads=1 / sliced_threads=0 / nr=0 / decimate=1 / interlaced=0 / bluray_compat=0 / stitchable=1 / constrained_intra=0 / bframes=3 / b_pyramid=2 / b_adapt=2 / b_bias=0 / direct=3 / weightb=1 / open_gop=0 / weightp=2 / keyint=100 / keyint_min=51 / scenecut=0 / intra_refresh=0 / rc_lookahead=100 / rc=crf / mbtree=1 / crf=21.0 / qcomp=0.60 / qpmin=0 / qpmax=69 / qpstep=4 / vbv_maxrate=4000 / vbv_bufsize=16000 / crf_max=0.0 / nal_hrd=vbr / filler=0 / ip_ratio=1.40 / aq=1:1.00
Language                                 : Japanese
Default                                  : Yes
Forced                                   : No
Color range                              : Limited
Color primaries                          : BT.709
Transfer characteristics                 : BT.709
Matrix coefficients                      : BT.709

Audio #1
ID                                       : 2
Format                                   : E-AC-3
Format/Info                              : Enhanced AC-3
Commercial name                          : Dolby Digital Plus
Codec ID                                 : A_EAC3
Duration                                 : 22 min 18 s
Bit rate mode                            : Constant
Bit rate                                 : 128 kb/s
Channel(s)                               : 2 channels
Channel layout                           : L R
Sampling rate                            : 48.0 kHz
Frame rate                               : 31.250 FPS (1536 SPF)
Compression mode                         : Lossy
Stream size                              : 20.4 MiB (10%)
Title                                    : United States
Language                                 : English (US)
Service kind                             : Complete Main
Default                                  : Yes
Forced                                   : No

Audio #2
ID                                       : 3
Format                                   : E-AC-3
Format/Info                              : Enhanced AC-3
Commercial name                          : Dolby Digital Plus
Codec ID                                 : A_EAC3
Duration                                 : 22 min 18 s
Bit rate mode                            : Constant
Bit rate                                 : 128 kb/s
Channel(s)                               : 2 channels
Channel layout                           : L R
Sampling rate                            : 48.0 kHz
Frame rate                               : 31.250 FPS (1536 SPF)
Compression mode                         : Lossy
Stream size                              : 20.4 MiB (10%)
Language                                 : Spanish (ES)
Service kind                             : Complete Main
Default                                  : No
Forced                                   : No

Audio #3
ID                                       : 4
Format                                   : E-AC-3
Format/Info                              : Enhanced AC-3
Commercial name                          : Dolby Digital Plus
Codec ID                                 : A_EAC3
Duration                                 : 22 min 18 s
Bit rate mode                            : Constant
Bit rate                                 : 128 kb/s
Channel(s)                               : 2 channels
Channel layout                           : L R
Sampling rate                            : 48.0 kHz
Frame rate                               : 31.250 FPS (1536 SPF)
Compression mode                         : Lossy
Stream size                              : 20.4 MiB (10%)
Language                                 : Japanese
Service kind                             : Complete Main
Default                                  : No
Forced                                   : No

Text #1
ID                                       : 5
Format                                   : UTF-8
Codec ID                                 : S_TEXT/UTF8
Codec ID/Info                            : UTF-8 Plain Text
Duration                                 : 6 s 640 ms
Bit rate                                 : 62 b/s
Frame rate                               : 0.151 FPS
Count of elements                        : 1
Stream size                              : 52.0 Bytes (0%)
Title                                    : Forced
Language                                 : Spanish (ES)
Default                                  : No
Forced                                   : Yes

Text #2
ID                                       : 6
Format                                   : UTF-8
Codec ID                                 : S_TEXT/UTF8
Codec ID/Info                            : UTF-8 Plain Text
Duration                                 : 22 min 9 s
Bit rate                                 : 85 b/s
Frame rate                               : 0.160 FPS
Count of elements                        : 213
Stream size                              : 13.9 KiB (0%)
Language                                 : Bulgarian
Default                                  : No
Forced                                   : No

Text #3
ID                                       : 7
Format                                   : UTF-8
Codec ID                                 : S_TEXT/UTF8
Codec ID/Info                            : UTF-8 Plain Text
Duration                                 : 22 min 4 s
Bit rate                                 : 50 b/s
Frame rate                               : 0.180 FPS
Count of elements                        : 238
Stream size                              : 8.19 KiB (0%)
Language                                 : Czech
Default                                  : No
Forced                                   : No

Text #4
ID                                       : 8
Format                                   : UTF-8
Codec ID                                 : S_TEXT/UTF8
Codec ID/Info                            : UTF-8 Plain Text
Duration                                 : 22 min 5 s
Bit rate                                 : 56 b/s
Frame rate                               : 0.155 FPS
Count of elements                        : 206
Stream size                              : 9.10 KiB (0%)
Language                                 : Danish
Default                                  : No
Forced                                   : No

Text #5
ID                                       : 9
Format                                   : UTF-8
Codec ID                                 : S_TEXT/UTF8
Codec ID/Info                            : UTF-8 Plain Text
Duration                                 : 22 min 7 s
Bit rate                                 : 64 b/s
Frame rate                               : 0.191 FPS
Count of elements                        : 253
Stream size                              : 10.5 KiB (0%)
Title                                    : United States
Language                                 : English (US)
Default                                  : No
Forced                                   : No

Text #6
ID                                       : 10
Format                                   : UTF-8
Codec ID                                 : S_TEXT/UTF8
Codec ID/Info                            : UTF-8 Plain Text
Duration                                 : 21 min 59 s
Bit rate                                 : 63 b/s
Frame rate                               : 0.212 FPS
Count of elements                        : 280
Stream size                              : 10.2 KiB (0%)
Language                                 : Spanish (ES)
Default                                  : No
Forced                                   : No

Text #7
ID                                       : 11
Format                                   : UTF-8
Codec ID                                 : S_TEXT/UTF8
Codec ID/Info                            : UTF-8 Plain Text
Duration                                 : 22 min 5 s
Bit rate                                 : 53 b/s
Frame rate                               : 0.157 FPS
Count of elements                        : 208
Stream size                              : 8.72 KiB (0%)
Language                                 : Finnish
Default                                  : No
Forced                                   : No

Text #8
ID                                       : 12
Format                                   : UTF-8
Codec ID                                 : S_TEXT/UTF8
Codec ID/Info                            : UTF-8 Plain Text
Duration                                 : 22 min 4 s
Bit rate                                 : 54 b/s
Frame rate                               : 0.208 FPS
Count of elements                        : 276
Stream size                              : 8.76 KiB (0%)
Language                                 : French (FR)
Default                                  : No
Forced                                   : No

Text #9
ID                                       : 13
Format                                   : UTF-8
Codec ID                                 : S_TEXT/UTF8
Codec ID/Info                            : UTF-8 Plain Text
Duration                                 : 22 min 5 s
Bit rate                                 : 52 b/s
Frame rate                               : 0.192 FPS
Count of elements                        : 255
Stream size                              : 8.52 KiB (0%)
Language                                 : Croatian
Default                                  : No
Forced                                   : No

Text #10
ID                                       : 14
Format                                   : UTF-8
Codec ID                                 : S_TEXT/UTF8
Codec ID/Info                            : UTF-8 Plain Text
Duration                                 : 22 min 5 s
Bit rate                                 : 56 b/s
Frame rate                               : 0.174 FPS
Count of elements                        : 231
Stream size                              : 9.21 KiB (0%)
Language                                 : Hungarian
Default                                  : No
Forced                                   : No

Text #11
ID                                       : 15
Format                                   : UTF-8
Codec ID                                 : S_TEXT/UTF8
Codec ID/Info                            : UTF-8 Plain Text
Duration                                 : 22 min 5 s
Bit rate                                 : 89 b/s
Frame rate                               : 0.192 FPS
Count of elements                        : 255
Stream size                              : 14.5 KiB (0%)
Language                                 : Macedonian
Default                                  : No
Forced                                   : No

Text #12
ID                                       : 16
Format                                   : UTF-8
Codec ID                                 : S_TEXT/UTF8
Codec ID/Info                            : UTF-8 Plain Text
Duration                                 : 22 min 5 s
Bit rate                                 : 51 b/s
Frame rate                               : 0.140 FPS
Count of elements                        : 186
Stream size                              : 8.25 KiB (0%)
Language                                 : Norwegian Bokmal
Default                                  : No
Forced                                   : No

Text #13
ID                                       : 17
Format                                   : UTF-8
Codec ID                                 : S_TEXT/UTF8
Codec ID/Info                            : UTF-8 Plain Text
Duration                                 : 22 min 5 s
Bit rate                                 : 55 b/s
Frame rate                               : 0.158 FPS
Count of elements                        : 210
Stream size                              : 8.94 KiB (0%)
Language                                 : Dutch
Default                                  : No
Forced                                   : No

Text #14
ID                                       : 18
Format                                   : UTF-8
Codec ID                                 : S_TEXT/UTF8
Codec ID/Info                            : UTF-8 Plain Text
Duration                                 : 22 min 7 s
Bit rate                                 : 47 b/s
Frame rate                               : 0.151 FPS
Count of elements                        : 200
Stream size                              : 7.72 KiB (0%)
Language                                 : Polish
Default                                  : No
Forced                                   : No

Text #15
ID                                       : 19
Format                                   : UTF-8
Codec ID                                 : S_TEXT/UTF8
Codec ID/Info                            : UTF-8 Plain Text
Duration                                 : 22 min 5 s
Bit rate                                 : 58 b/s
Frame rate                               : 0.171 FPS
Count of elements                        : 227
Stream size                              : 9.54 KiB (0%)
Language                                 : Portuguese (PT)
Default                                  : No
Forced                                   : No

Text #16
ID                                       : 20
Format                                   : UTF-8
Codec ID                                 : S_TEXT/UTF8
Codec ID/Info                            : UTF-8 Plain Text
Duration                                 : 22 min 5 s
Bit rate                                 : 54 b/s
Frame rate                               : 0.169 FPS
Count of elements                        : 224
Stream size                              : 8.83 KiB (0%)
Language                                 : Romanian
Default                                  : No
Forced                                   : No

Text #17
ID                                       : 21
Format                                   : UTF-8
Codec ID                                 : S_TEXT/UTF8
Codec ID/Info                            : UTF-8 Plain Text
Duration                                 : 22 min 5 s
Bit rate                                 : 51 b/s
Frame rate                               : 0.192 FPS
Count of elements                        : 255
Stream size                              : 8.35 KiB (0%)
Language                                 : Slovenian
Default                                  : No
Forced                                   : No

Text #18
ID                                       : 22
Format                                   : UTF-8
Codec ID                                 : S_TEXT/UTF8
Codec ID/Info                            : UTF-8 Plain Text
Duration                                 : 22 min 5 s
Bit rate                                 : 49 b/s
Frame rate                               : 0.192 FPS
Count of elements                        : 255
Stream size                              : 8.04 KiB (0%)
Title                                    : Latin
Language                                 : Serbian (Latn)
Default                                  : No
Forced                                   : No

Text #19
ID                                       : 23
Format                                   : UTF-8
Codec ID                                 : S_TEXT/UTF8
Codec ID/Info                            : UTF-8 Plain Text
Duration                                 : 22 min 5 s
Bit rate                                 : 56 b/s
Frame rate                               : 0.161 FPS
Count of elements                        : 214
Stream size                              : 9.15 KiB (0%)
Language                                 : Swedish
Default                                  : No
Forced                                   : No

Other Files in this Torrent
Ninja Kamui S01E10 MULTi 720p WEB x264 E-AC-3 -Tsundere-Raws (MAX).mkv
beta
Anime DDL+NZB mirror
Current Time: 19/07/2024 08:58



About/FAQs

Discord